<?xml version="1.0" standalone="no"?>
<!DOCTYPE svg PUBLIC "-//W3C//DTD SVG 1.1//EN" "http://www.w3.org/Graphics/SVG/1.1/DTD/svg11.dtd" >
<svg xmlns="http://www.w3.org/2000/svg" xmlns:xlink="http://www.w3.org/1999/xlink" version="1.1">
<metadata></metadata>
<defs>
<font id="maven_promedium" horiz-adv-x="1200" >
<font-face units-per-em="2048" ascent="1638" descent="-410" />
<missing-glyph horiz-adv-x="581" />
<glyph unicode="&#xfb01;" horiz-adv-x="1286" d="M74 850v178h166v41q0 238 105.5 315.5t252.5 77.5q57 0 115 -14v-191q-25 12 -43.5 18.5t-44.5 6.5q-51 0 -87 -12.5t-59.5 -54t-23.5 -128.5v-59h258v-178h-260v-850h-215v850h-164zM906 1192v194h229v-194h-229zM912 0v1022h215l2 -1022h-217z" />
<glyph unicode="&#xfb02;" horiz-adv-x="1273" d="M74 850v178h166v41q0 238 105.5 315.5t252.5 77.5q57 0 115 -14v-191q-25 12 -43.5 18.5t-44.5 6.5q-51 0 -87 -12.5t-59.5 -54t-23.5 -128.5v-59h258v-178h-260v-850h-215v850h-164zM908 0v1417h213v-1417h-213z" />
<glyph horiz-adv-x="0" />
<glyph unicode="&#xd;" horiz-adv-x="581" />
<glyph horiz-adv-x="0" />
<glyph horiz-adv-x="0" />
<glyph unicode=" "  horiz-adv-x="581" />
<glyph unicode="&#x09;" horiz-adv-x="581" />
<glyph unicode="&#xa0;" horiz-adv-x="581" />
<glyph unicode="!" horiz-adv-x="798" d="M301 0v193h211v-193h-211zM301 1366h211l-25 -1008h-161z" />
<glyph unicode="&#x22;" horiz-adv-x="815" d="M166 1384h194l-34 -411h-123zM451 1384h196l-37 -411h-123z" />
<glyph unicode="#" horiz-adv-x="1232" d="M147 254v143h185l51 301h-178v142h205l39 231h145l-39 -231h254l41 231h147l-43 -231h142v-142h-164l-53 -301h159v-143h-182l-37 -215h-147l37 215h-254l-39 -215h-146l39 215h-162zM479 397h254l53 301h-256z" />
<glyph unicode="$" horiz-adv-x="1155" d="M127 84v225q80 -66 195.5 -105.5t242.5 -39.5q125 0 188.5 51t63.5 145q0 63 -37 104.5t-92 68t-156 63.5l-45 16q-113 39 -185.5 80t-121.5 117t-49 195q0 88 39 168.5t123 138t211 73.5v160h184v-158q76 -6 137.5 -27.5t145.5 -62.5v-221q-104 66 -180 97.5t-181 31.5 q-121 0 -184.5 -49t-63.5 -129q0 -68 35 -110t91.5 -67.5t162.5 -60.5q125 -41 208 -85t136.5 -120.5t53.5 -195.5q0 -151 -90.5 -264t-270.5 -139v-179h-184v172q-113 6 -198 32t-179 75z" />
<glyph unicode="%" horiz-adv-x="1648" d="M76 1012q0 188 76.5 282.5t234.5 94.5t233.5 -94.5t75.5 -282.5q0 -189 -75.5 -283t-233.5 -94t-234.5 94t-76.5 283zM240 1012q0 -137 46 -190.5t101 -53.5q53 0 98 53t45 191q0 139 -45 192t-98 53q-55 0 -101 -53t-46 -192zM403 -45l877 1448h172l-414 -684 q53 18 123 18q158 0 233.5 -94t75.5 -283q0 -188 -75.5 -282t-233.5 -94t-234.5 94t-76.5 282q0 35 2 50l-277 -455h-172zM1014 360q0 -137 46 -190t101 -53q53 0 98.5 53t45.5 190q0 139 -45.5 192.5t-98.5 53.5q-55 0 -101 -53t-46 -193z" />
<glyph unicode="&#x26;" horiz-adv-x="1349" d="M98 365q0 106 64.5 210.5t212.5 186.5l-10 12q-131 164 -132 281q0 88 48.5 163.5t133.5 120.5t185 45t181 -40.5t126 -112.5t45 -160q0 -111 -67.5 -186.5t-210.5 -159.5l260 -311q27 47 42 91t30 101h174q-12 -70 -48 -159t-85 -168l233 -279h-270l-101 121 q-164 -141 -379 -141q-139 0 -236 58t-146.5 147t-49.5 180zM326 379q0 -74 52 -144.5t183 -70.5q62 0 122 26.5t110 69.5l-306 367q-86 -59 -123.5 -125t-37.5 -123zM451 1051q0 -35 38.5 -94.5t83.5 -110.5l2 -2q104 57 140.5 106t36.5 105q0 61 -42 100t-108 39 q-63 0 -107 -42t-44 -101z" />
<glyph unicode="'" horiz-adv-x="532" d="M166 1384h194l-34 -411h-123z" />
<glyph unicode="(" horiz-adv-x="714" d="M156 625q0 262 78.5 488t179.5 370h198q-80 -143 -153.5 -365.5t-73.5 -492.5q0 -268 73.5 -490.5t153.5 -365.5h-198q-101 145 -179.5 369t-78.5 487z" />
<glyph unicode=")" horiz-adv-x="714" d="M102 -231q82 145 156 366t74 492q0 268 -74 489t-156 367h199q100 -143 180 -368.5t80 -487.5q0 -264 -80 -490.5t-180 -367.5h-199z" />
<glyph unicode="*" horiz-adv-x="843" d="M172 1118l172 72l-172 74l61 106l144 -100l-19 170h125l-14 -170l139 100l64 -106l-170 -74l170 -72l-64 -110l-139 102l14 -168h-125l19 168l-144 -102z" />
<glyph unicode="+" horiz-adv-x="1128" d="M197 535v155h288v289h156v-289h287v-155h-287v-287h-156v287h-288z" />
<glyph unicode="," horiz-adv-x="673" d="M152 -229l151 401h203l-178 -401h-176z" />
<glyph unicode="-" horiz-adv-x="950" d="M162 530v175h624v-175h-624z" />
<glyph unicode="." horiz-adv-x="534" d="M145 0v240h244v-240h-244z" />
<glyph unicode="/" horiz-adv-x="864" d="M-29 -201l752 1749h172l-754 -1749h-170z" />
<glyph unicode="0" horiz-adv-x="1341" d="M109 680q0 705 561 704q285 0 424 -176t139 -528q0 -354 -138.5 -529.5t-424.5 -175.5q-283 0 -422 176.5t-139 528.5zM336 680q0 -303 92 -407.5t242 -104.5q94 0 166.5 38t121 150.5t48.5 323.5q0 301 -93.5 406.5t-242.5 105.5q-147 0 -240.5 -105.5t-93.5 -406.5z " />
<glyph unicode="1" horiz-adv-x="940" d="M172 975v225l274 166h222v-1366h-226v1141z" />
<glyph unicode="2" horiz-adv-x="1214" d="M152 0v174q137 92 287.5 229.5t258 289t107.5 276.5q0 100 -67.5 162.5t-217.5 62.5q-178 0 -356 -133v213q190 115 405 115q231 0 347 -112t116 -290q0 -193 -163.5 -386t-407.5 -388h594v-213h-903z" />
<glyph unicode="3" horiz-adv-x="1204" d="M158 78v209q186 -111 362 -111q156 0 240 56.5t84 162.5q0 111 -83 170.5t-247 59.5h-172v186h176q125 0 191.5 50t66.5 138q0 94 -73.5 142.5t-206.5 48.5q-80 0 -154 -18.5t-154 -57.5v193q156 78 330 77q145 0 252 -48t162 -132t55 -190q0 -82 -37 -142.5t-83 -94.5 t-68 -38q35 -8 95 -51t108.5 -119.5t48.5 -181.5q0 -119 -59.5 -210t-175.5 -142t-277 -51q-193 0 -381 94z" />
<glyph unicode="4" horiz-adv-x="1226" d="M78 391v193l631 782h227v-788h186v-187h-186v-391h-227v391h-631zM293 578h416v509z" />
<glyph unicode="5" horiz-adv-x="1187" d="M172 737l78 629h733v-205h-571l-33 -311q115 31 250 31q192 0 321 -102.5t129 -340.5q0 -252 -139 -355t-350 -103q-125 0 -227.5 27.5t-169.5 68.5v219q57 -45 154 -81t220 -36q285 0 285 250q0 143 -72.5 195.5t-195.5 52.5q-113 0 -175.5 -18.5t-119.5 -43.5z" />
<glyph unicode="6" horiz-adv-x="1230" d="M115 627q0 449 202.5 605.5t442.5 156.5q139 0 241 -37v-199q-109 41 -221 41q-90 0 -184 -40t-165 -139.5t-85 -260.5q51 55 128 92t175 37q225 0 347 -116t122 -327q0 -123 -54 -227t-169 -168.5t-285 -64.5q-496 0 -495 647zM344 573q10 -160 47 -246.5t93.5 -118.5 t136.5 -32q153 0 210.5 86t57.5 182q0 125 -68.5 190.5t-195.5 65.5q-98 0 -170 -35.5t-111 -91.5z" />
<glyph unicode="7" horiz-adv-x="1191" d="M141 1151v215h953v-162l-545 -1204h-250l541 1151h-699z" />
<glyph unicode="8" horiz-adv-x="1234" d="M109 397q0 141 77.5 216t157.5 112q-57 25 -122.5 96.5t-65.5 196.5q0 166 113.5 268.5t348.5 102.5q236 0 350.5 -102.5t114.5 -268.5q0 -127 -60 -194.5t-124 -98.5q72 -29 150.5 -106.5t78.5 -221.5q0 -113 -53 -208t-167.5 -152t-289.5 -57q-172 0 -286.5 57 t-168.5 152.5t-54 207.5zM344 420q0 -88 58.5 -169t215.5 -81q160 0 218.5 81t58.5 169q0 102 -71.5 161.5t-205.5 59.5q-131 0 -202.5 -59.5t-71.5 -161.5zM385 1004q0 -96 65.5 -151.5t167.5 -55.5q105 0 169.5 55t64.5 152q0 98 -67.5 144t-166.5 46q-98 0 -165.5 -46 t-67.5 -144z" />
<glyph unicode="9" horiz-adv-x="1239" d="M115 928q0 123 54 227.5t164.5 169t274.5 64.5q510 -1 510 -648q0 -449 -202.5 -605t-442.5 -156q-139 0 -242 36v199q109 -41 222 -41q90 0 184 40t164.5 139.5t85.5 260.5q-51 -55 -128 -92t-175 -37q-225 0 -347 116t-122 327zM342 924q0 -125 69.5 -190.5 t196.5 -65.5q97 0 169.5 36.5t111.5 92.5q-10 160 -47 246.5t-94.5 117.5t-139.5 31q-150 0 -208 -86t-58 -182z" />
<glyph unicode=":" horiz-adv-x="821" d="M311 90v201h203v-201h-203zM311 729v199h203v-199h-203z" />
<glyph unicode=";" horiz-adv-x="604" d="M80 -229l137 413h229l-192 -413h-174zM215 688v240h244v-240h-244z" />
<glyph unicode="&#x3c;" horiz-adv-x="1355" d="M246 473v154l850 383v-199l-623 -260l623 -264v-197z" />
<glyph unicode="=" horiz-adv-x="1306" d="M258 477v268h793v-268h-793z" />
<glyph unicode="&#x3e;" horiz-adv-x="1335" d="M260 90v197l621 264l-621 260v199l848 -383v-154z" />
<glyph unicode="?" horiz-adv-x="1017" d="M164 1108v190q33 25 117 54.5t188 29.5q102 0 196.5 -37.5t155 -123.5t60.5 -224q0 -98 -38 -155.5t-114 -122.5q-51 -45 -82 -80t-52.5 -87t-21.5 -124v-70h-186v78q0 100 26.5 171t64.5 114t97 94q59 53 88 91t29 93q0 203 -243 203q-86 0 -162 -27.5t-123 -66.5z M375 0v193h211v-193h-211z" />
<glyph unicode="@" horiz-adv-x="1869" d="M168 371q0 244 130 441.5t334 309t412 111.5q147 0 304 -69.5t265.5 -220t108.5 -376.5q0 -139 -41 -255.5t-117.5 -184.5t-183.5 -68q-72 0 -117.5 32t-68.5 79q-90 -111 -291 -111q-147 0 -231 64.5t-84 179.5q0 117 96 207t354 90q51 0 138 -8q2 6 2 20q0 12 -2 19 q-2 68 -39 106.5t-148 38.5q-145 0 -264 -45l18 137q143 45 250 45q160 0 243 -72.5t83 -213.5q0 -57 -8 -119t-11 -74q-16 -115 -16 -160q0 -123 109 -122q51 0 106 46t92 139t37 226q0 182 -88 312.5t-223 197t-275 66.5q-197 0 -377 -103.5t-289.5 -280.5t-109.5 -386 q0 -233 108.5 -363.5t242 -175.5t231.5 -45q256 0 442 102l-20 -110q-176 -82 -432 -82q-150 0 -304.5 70.5t-260 222t-105.5 383.5zM731 303q0 -102 172 -102q111 0 162 34.5t65.5 83t26.5 144.5q-55 6 -119 6q-307 0 -307 -166z" />
<glyph unicode="A" horiz-adv-x="1359" d="M35 0l532 1366h240l518 -1366h-238l-135 371h-559l-133 -371h-225zM461 555h424l-213 586z" />
<glyph unicode="B" horiz-adv-x="1323" d="M162 0v1366h506q240 0 355.5 -96t115.5 -275q0 -100 -44 -158.5t-120 -105.5q106 -37 174 -121t68 -213q0 -201 -135.5 -299t-366.5 -98h-553zM387 797h307q96 0 156.5 38.5t60.5 141.5q0 109 -60 154t-175 45h-289v-379zM389 188h324q125 0 198.5 48.5t73.5 171.5 t-77 164.5t-201 41.5h-318v-426z" />
<glyph unicode="C" horiz-adv-x="1280" d="M98 684q0 705 650 705q211 0 423 -101v-203q-197 115 -395 115q-229 0 -336.5 -123t-107.5 -395t108.5 -392t341.5 -120q201 0 389 111v-203q-94 -47 -205.5 -72.5t-217.5 -25.5h-2q-648 0 -648 704z" />
<glyph unicode="D" horiz-adv-x="1404" d="M162 0v1366h479q655 0 655 -682q0 -684 -655 -684h-479zM387 190h231q229 0 338 119t109 375t-108.5 375t-338.5 119h-231v-988z" />
<glyph unicode="E" d="M162 0v1366h895v-190h-668v-396h582v-192h-584v-398h670v-190h-895z" />
<glyph unicode="F" horiz-adv-x="1130" d="M162 0v1366h876v-190h-651v-408h569v-193h-569v-575h-225z" />
<glyph unicode="G" horiz-adv-x="1423" d="M109 684q0 354 165.5 529.5t479.5 175.5q244 0 456 -95v-217q-125 59 -225 91t-203 32q-227 0 -336.5 -123t-109.5 -393t109.5 -393t330.5 -123q150 0 260 41v326h-286v192h512v-627q-240 -125 -506 -125q-316 0 -481.5 176.5t-165.5 532.5z" />
<glyph unicode="H" horiz-adv-x="1406" d="M162 0v1366h225v-588h631v588h227v-1366h-227v582h-631v-582h-225z" />
<glyph unicode="I" horiz-adv-x="550" d="M162 0v1366h227v-1366h-227z" />
<glyph unicode="J" horiz-adv-x="950" d="M84 53v217q131 -96 246 -96q119 0 175 58.5t56 191.5v942h227v-956q0 -236 -119.5 -333t-293.5 -97h-4q-152 0 -287 73z" />
<glyph unicode="K" horiz-adv-x="1314" d="M162 0v1366h227v-664l549 664h287l-555 -612l600 -754h-297l-459 582l-125 -138v-444h-227z" />
<glyph unicode="L" horiz-adv-x="1099" d="M162 0v1366h227v-1173h653v-193h-880z" />
<glyph unicode="M" horiz-adv-x="1660" d="M162 0v1366h235l430 -635l441 635h231v-1366h-225v1042l-457 -630l-436 626v-1038h-219z" />
<glyph unicode="N" horiz-adv-x="1480" d="M162 0v1366h217l725 -1004v1004h215v-1366h-203l-739 1016v-1016h-215z" />
<glyph unicode="O" horiz-adv-x="1488" d="M109 682q0 348 161.5 527.5t472.5 179.5q309 0 473 -177.5t164 -529.5q0 -348 -162.5 -527.5t-474.5 -179.5q-307 0 -470.5 178.5t-163.5 528.5zM340 682q0 -268 98.5 -389t304.5 -121q209 0 306.5 122t97.5 390q0 266 -98.5 387t-305.5 121t-305 -121t-98 -389z" />
<glyph unicode="P" horiz-adv-x="1300" d="M162 0v1366h540q236 0 363 -109.5t127 -322.5t-128 -329t-362 -116h-315v-489h-225zM387 682h287q162 0 222 66.5t60 177.5q0 115 -60 182.5t-222 67.5h-287v-494z" />
<glyph unicode="Q" horiz-adv-x="1488" d="M743 1395q637 0 637 -713q0 -457 -262 -621q57 -100 133 -100q33 0 59.5 8t67.5 33v-162q-72 -39 -161 -39q-90 0 -166 46.5t-123 140.5q-82 -18 -185 -19q-634 0 -634 711q0 715 634 715zM340 682q0 -281 96 -408v95q41 45 107.5 78.5t152.5 33.5q106 0 191.5 -60.5 t142.5 -168.5q59 63 88 168.5t29 263.5q0 274 -97.5 397t-306.5 123q-206 0 -304.5 -123t-98.5 -399zM473 233q94 -86 270 -86q63 4 113 13q-74 151 -192 151h-2q-104 0 -189 -78z" />
<glyph unicode="R" horiz-adv-x="1361" d="M162 0v1366h606q215 0 328.5 -103.5t113.5 -308.5q0 -147 -80.5 -257.5t-218.5 -141.5l365 -555h-281l-319 516h-289v-516h-225zM387 700h318q135 0 201.5 59.5t66.5 180.5q0 117 -54.5 176.5t-177.5 59.5h-354v-476z" />
<glyph unicode="S" horiz-adv-x="1155" d="M127 84v225q80 -66 195.5 -105.5t242.5 -39.5q125 0 188.5 51t63.5 145q0 63 -37 104.5t-92 68t-156 63.5l-45 16q-113 39 -185.5 80t-121.5 117t-49 195q0 98 49 186t153.5 144.5t262.5 56.5q115 0 191.5 -21.5t183.5 -73.5v-221q-104 66 -180 97.5t-181 31.5 q-121 0 -184.5 -49t-63.5 -129q0 -68 35 -110t91.5 -67.5t162.5 -60.5q125 -41 208 -85t136.5 -120.5t53.5 -195.5q0 -113 -50.5 -206t-156 -149.5t-262.5 -56.5q-146 0 -244 26t-209 83z" />
<glyph unicode="T" horiz-adv-x="1198" d="M45 1176v190h1108v-190h-442v-1176h-226v1176h-440z" />
<glyph unicode="U" horiz-adv-x="1445" d="M162 537v829h231v-827q0 -193 84 -286t252 -93q338 0 338 379v827h217v-829q0 -276 -145.5 -422t-401.5 -146q-280 0 -427.5 143.5t-147.5 424.5z" />
<glyph unicode="V" horiz-adv-x="1351" d="M35 1366h254l397 -1102l393 1100l238 2l-529 -1366h-235z" />
<glyph unicode="W" horiz-adv-x="2027" d="M51 1366h244l303 -1081l320 1081h194l322 -1079l299 1079h243l-415 -1366h-226l-321 1026l-322 -1026h-227z" />
<glyph unicode="X" horiz-adv-x="1286" d="M31 0l471 690l-469 676h276l348 -500l330 500h258l-463 -682l475 -684h-278l-354 510l-336 -510h-258z" />
<glyph unicode="Y" horiz-adv-x="1306" d="M33 1366h276l365 -567l350 567h244l-496 -756v-610h-225v612z" />
<glyph unicode="Z" horiz-adv-x="1269" d="M123 0v178l745 998h-729v190h1000v-172l-733 -1004h733v-190h-1016z" />
<glyph unicode="[" horiz-adv-x="796" d="M211 -238v1663h444v-196h-219v-1270h219v-197h-444z" />
<glyph unicode="\" horiz-adv-x="792" d="M-76 1548h172l752 -1749h-170z" />
<glyph unicode="]" horiz-adv-x="800" d="M160 -41h217v1270h-217v196h444v-1663h-444v197z" />
<glyph unicode="^" horiz-adv-x="1165" d="M266 967l234 446h123l235 -446h-153l-142 301l-143 -301h-154z" />
<glyph unicode="_" horiz-adv-x="1118" d="M0 -49h1118v-125h-1118v125z" />
<glyph unicode="`" horiz-adv-x="485" d="M80 1386h213l108 -241h-127z" />
<glyph unicode="a" horiz-adv-x="1150" d="M104 299q0 168 97.5 252t275.5 84q184 0 307 -74v98q0 209 -252 209q-90 0 -180 -27.5t-149 -76.5v201q57 37 166.5 61.5t226.5 24.5q168 0 286 -81q116 -80 115 -255v-6v-492q0 -139 -122.5 -193.5t-350.5 -54.5q-182 0 -301 76t-119 254zM317 309q0 -86 69 -129 t163 -43q129 0 182 18.5t53 73.5v199q-104 45 -229 45q-117 0 -177.5 -41t-60.5 -123z" />
<glyph unicode="b" horiz-adv-x="1193" d="M152 203v1237h213v-453q59 29 133.5 46.5t130.5 17.5q229 0 348 -137.5t119 -389.5q0 -303 -142.5 -429t-361.5 -126q-440 0 -440 234zM365 256q0 -100 210 -100q168 0 235 96t67 264q0 172 -71 262t-210 90q-57 0 -119.5 -15t-111.5 -44v-553z" />
<glyph unicode="c" horiz-adv-x="1015" d="M98 508q0 287 142.5 415t361.5 128q166 0 316 -62v-192q-154 65 -281 65h-4q-162 0 -242 -81t-80 -257q0 -184 78 -269t250 -85q139 0 281 68v-193q-145 -65 -311 -65h-5q-217 0 -361.5 124.5t-144.5 403.5z" />
<glyph unicode="d" d="M98 526q0 248 121 387.5t359 139.5q55 0 127.5 -14.5t130.5 -43.5v463h213v-1241q0 -82 -68 -138t-170 -83t-211 -27q-219 0 -360.5 124t-141.5 433zM317 522q0 -172 66 -269t229 -97q94 0 159 22.5t65 59.5v571q-49 29 -109.5 44t-118.5 15q-291 0 -291 -346z" />
<glyph unicode="e" horiz-adv-x="1132" d="M98 508q0 264 125 404.5t352 140.5q239 0 351 -155q110 -152 110 -423v-10h-721q10 -152 89 -230.5t225 -78.5q94 0 180 23.5t152 60.5v-201q-160 -70 -367 -70q-231 0 -363.5 140.5t-132.5 398.5zM319 625h498q-14 131 -73.5 191.5t-174.5 60.5q-108 0 -169.5 -57.5 t-80.5 -194.5z" />
<glyph unicode="f" horiz-adv-x="784" d="M74 850v178h166v41q0 238 105.5 315.5t252.5 77.5q57 0 115 -14v-191q-25 12 -43.5 18.5t-44.5 6.5q-51 0 -87 -12.5t-59.5 -54t-23.5 -128.5v-59h258v-178h-260v-850h-215v850h-164z" />
<glyph unicode="g" horiz-adv-x="1185" d="M98 485q0 319 147.5 442.5t393.5 123.5q174 0 287.5 -68t113.5 -199v-815q0 -176 -114.5 -286.5t-364.5 -110.5q-182 0 -332 55v197q170 -63 316 -64q164 0 223 58.5t59 154.5v70q-59 -33 -129.5 -53.5t-138.5 -20.5q-225 4 -343 137.5t-118 378.5zM317 492 q0 -160 70 -253.5t207 -93.5q133 0 233 60v538q0 72 -54 98.5t-146 26.5q-174 0 -242 -100t-68 -276z" />
<glyph unicode="h" horiz-adv-x="1210" d="M152 0v1462h215v-495q154 84 303 84q389 0 389 -414v-637h-215v610q0 125 -59.5 190.5t-176.5 65.5q-125 0 -241 -67l-2 -799h-213z" />
<glyph unicode="i" horiz-adv-x="532" d="M152 1192v194h229v-194h-229zM158 0v1022h215l2 -1022h-217z" />
<glyph unicode="j" horiz-adv-x="579" d="M18 -211h9q99 0 139 41q41 43 41 137v1061h215l2 -1065q0 -358 -406 -358v184zM201 1198v195h227v-195h-227z" />
<glyph unicode="k" horiz-adv-x="1114" d="M152 0v1417h215l-2 -774l374 385h265l-467 -446l520 -582h-279l-413 461v-461h-213z" />
<glyph unicode="l" horiz-adv-x="516" d="M152 0v1417h213v-1417h-213z" />
<glyph unicode="m" horiz-adv-x="1837" d="M152 0v944q92 47 224 77t253 30q201 0 299 -78q166 78 344 78q215 0 314.5 -90.5t99.5 -280.5v-680h-216v651q0 215 -243 215q-109 0 -199 -55q14 -55 14 -131v-680h-215v651q0 215 -243 215q-111 0 -217 -39v-827h-215z" />
<glyph unicode="n" d="M152 0v944q92 47 224 77t253 30q215 0 317.5 -90.5t102.5 -280.5v-680h-215v651q0 215 -244 215q-117 0 -223 -39v-827h-215z" />
<glyph unicode="o" horiz-adv-x="1183" d="M98 514q0 539 492 539q248 0 372.5 -138.5t124.5 -400.5t-129 -403.5t-366 -141.5q-246 0 -370 139.5t-124 405.5zM311 514q0 -176 66.5 -269t212.5 -93q282 0 282 362q0 180 -67.5 269t-214.5 89q-150 0 -214.5 -91t-64.5 -267z" />
<glyph unicode="p" horiz-adv-x="1193" d="M152 -412v1241q0 117 132 170.5t316 53.5q223 0 359.5 -131t136.5 -426q0 -242 -125 -383.5t-350 -141.5q-55 0 -127 14.5t-129 43.5v-441h-213zM365 213q100 -59 217 -59q145 0 220 89t75 257q0 174 -62.5 270t-222.5 96q-102 0 -164.5 -22.5t-62.5 -61.5v-569z" />
<glyph unicode="q" horiz-adv-x="1193" d="M98 492q0 559 527 559q417 -1 417 -265v-1210h-213v455q-57 -31 -125.5 -45.5t-123.5 -14.5q-231 0 -356.5 137.5t-125.5 383.5zM317 500q0 -166 77 -256t216 -90q119 0 219 59v549q0 49 -62 75.5t-144 26.5q-172 0 -239 -96t-67 -268z" />
<glyph unicode="r" horiz-adv-x="817" d="M152 0v934q57 35 194 76t272 41q82 0 140 -27v-172q-57 8 -137 8q-135 0 -254 -20v-840h-215z" />
<glyph unicode="s" horiz-adv-x="956" d="M109 731q0 109 57 180.5t144 104.5t184 33q98 -2 165.5 -23.5t147.5 -62.5v-185q-106 55 -160.5 75.5t-130.5 20.5q-84 0 -135 -30.5t-51 -85.5q0 -66 51 -95.5t160 -60.5q102 -29 162.5 -55.5t106.5 -87t46 -164.5q-2 -164 -120 -245t-287 -81q-103 0 -177.5 20.5 t-160.5 61.5v203q92 -57 167.5 -85t170.5 -28q88 0 138 36t50 93q0 55 -41 82t-127 58l-47 16q-143 35 -228 100.5t-85 204.5z" />
<glyph unicode="t" horiz-adv-x="786" d="M51 850v178h166v287h221v-287h250v-178h-250v-543q0 -76 27 -109.5t94 -33.5q33 0 69 9t60 24v-191q-72 -33 -170 -33q-141 0 -221 76t-80 215v586h-166z" />
<glyph unicode="u" horiz-adv-x="1204" d="M152 383v645h215v-614q0 -131 58 -193.5t181 -62.5t181.5 62.5t58.5 193.5v614h207v-645q0 -203 -117 -308.5t-330 -105.5q-215 0 -334.5 105.5t-119.5 308.5z" />
<glyph unicode="v" horiz-adv-x="1206" d="M63 1028h232l326 -792l301 792h223l-434 -1028h-215z" />
<glyph unicode="w" horiz-adv-x="1656" d="M63 1028h230l229 -774l217 774h179l223 -778l233 778h221l-342 -1028h-204l-222 731l-219 -731h-202z" />
<glyph unicode="x" horiz-adv-x="1142" d="M59 0l385 512l-374 516h260l260 -356l256 356h235l-381 -510l377 -518h-262l-260 360l-262 -360h-234z" />
<glyph unicode="y" horiz-adv-x="1153" d="M63 1028h244l281 -768l278 768h224l-424 -1091q-131 -334 -355 -334q-80 0 -135 24v185q51 -20 103 -21q80 0 126 53.5t78 161.5z" />
<glyph unicode="z" horiz-adv-x="964" d="M92 0v180l543 678h-531v170h768v-176l-522 -672h522v-180h-780z" />
<glyph unicode="{" horiz-adv-x="780" d="M158 530v144q43 8 82 41t39 94v305q0 152 88 234t274 82h31v-197h-25q-76 -2 -108.5 -37t-32.5 -115v-274q0 -133 -141 -205q141 -72 141 -205v-274q0 -80 32.5 -115t108.5 -39h25v-194h-31q-362 0 -362 313v305q0 61 -38 93t-83 44z" />
<glyph unicode="|" horiz-adv-x="935" d="M379 -203v1567h184v-1567h-184z" />
<glyph unicode="}" horiz-adv-x="770" d="M129 -31h21q78 4 109.5 38t31.5 116v274q0 131 143 205q-143 74 -143 205v274q0 82 -32 116t-109 36h-21v197h27q186 0 274 -82t88 -234v-305q0 -61 39 -94t82 -41v-144q-45 -12 -83 -43.5t-38 -93.5v-305q0 -313 -362 -313h-27v194z" />
<glyph unicode="~" horiz-adv-x="1038" d="M201 469v143q63 78 143 78q39 0 76 -14t98 -43q53 -29 94 -44.5t82 -15.5q80 0 144 78v-141q-63 -80 -144 -80q-39 0 -75.5 14.5t-98.5 42.5q-53 29 -94 44.5t-82 15.5q-80 0 -143 -78z" />
<glyph unicode="&#xa1;" horiz-adv-x="784" d="M299 -344l25 1008h161l23 -1008h-209zM299 829v193h209v-193h-209z" />
<glyph unicode="&#xa2;" horiz-adv-x="1015" d="M98 653q0 250 109.5 379t288.5 156v147h184v-143q125 -12 238 -57v-193q-156 66 -285 66q-162 0 -242 -81t-80 -257q0 -184 78 -269.5t250 -85.5q139 0 281 68v-193q-123 -53 -240 -61v-129h-184v133q-176 27 -287 153t-111 367z" />
<glyph unicode="&#xa3;" horiz-adv-x="1140" d="M102 -31v197q41 23 79 32t93 15v356h-172v174h172v256q0 100 44 187.5t141.5 142.5t249.5 55q156 0 319 -88v-202q-133 96 -285 96q-139 0 -200.5 -58.5t-61.5 -146.5v-242h371v-174h-371v-360q33 -8 49 -10q90 -20 155 -31.5t126 -11.5q115 0 217 45v-193 q-94 -51 -207 -51q-53 0 -107.5 9t-135.5 28q-80 18 -137.5 27.5t-112.5 9.5q-123 0 -226 -62z" />
<glyph unicode="&#xa4;" horiz-adv-x="1009" d="M94 389l99 103q-59 92 -60 202q0 113 60 201l-99 100l109 109l98 -96q94 61 207 61q111 0 203 -59l96 94l111 -109l-97 -96q61 -94 62 -205q-1 -113 -62 -207l97 -98l-111 -108l-98 96q-90 -57 -201 -58q-111 0 -203 60l-102 -98zM307 694q0 -94 56.5 -153.5t142.5 -59.5 t142.5 59.5t56.5 153.5t-56.5 154.5t-142.5 60.5t-142.5 -60.5t-56.5 -154.5z" />
<glyph unicode="&#xa5;" horiz-adv-x="1310" d="M37 1366h254l371 -567l368 567h256l-434 -629h221v-147h-307v-180h307v-148h-307v-262h-209v262h-307v148h307v180h-307v147h221z" />
<glyph unicode="&#xa6;" horiz-adv-x="935" d="M379 -203v649h184v-649h-184zM379 713v651h184v-651h-184z" />
<glyph unicode="&#xa7;" horiz-adv-x="1153" d="M121 721q0 92 64.5 144.5t150.5 70.5q-39 18 -69.5 60t-30.5 96q0 131 109.5 211.5t309.5 80.5q162 0 318 -73v-176q-141 76 -293 75q-92 0 -168 -24.5t-76 -89.5q0 -39 47 -74t189 -70q170 -43 270 -111.5t100 -205.5q0 -78 -57 -127t-135 -70q37 -27 58.5 -71.5 t21.5 -100.5q0 -133 -114 -207.5t-316 -74.5q-199 0 -369 90v190q141 -104 348 -104q92 0 171 24.5t79 94.5q0 49 -58.5 86.5t-213.5 76.5q-164 43 -250 102.5t-86 176.5zM322 723q0 -29 37.5 -55.5t168.5 -57.5q121 -31 209 -71q105 22 105 92q0 47 -48.5 83t-183.5 68 q-109 27 -157 45q-131 -18 -131 -104z" />
<glyph unicode="&#xa8;" horiz-adv-x="827" d="M143 1151v180h207v-180h-207zM479 1151v180h205v-180h-205z" />
<glyph unicode="&#xa9;" horiz-adv-x="1593" d="M98 682q0 190 94.5 351t255 255t351.5 94q190 0 351 -94t255 -255t94 -351q0 -188 -94 -349t-255 -255t-351 -94q-189 0 -350.5 94t-256 255t-94.5 349zM188 682q0 -164 82 -304t222.5 -223t306.5 -83t306 83t222 223t82 304q0 166 -82 306t-222 223t-306 83t-306.5 -83 t-222.5 -223t-82 -306zM442 682q0 211 97.5 310.5t273.5 99.5q125 0 248 -48v-112q-111 49 -238 49q-131 0 -194.5 -69.5t-63.5 -229.5q0 -158 63.5 -228.5t194.5 -70.5q123 0 238 51v-110q-119 -49 -248 -50q-176 0 -273.5 98.5t-97.5 309.5z" />
<glyph unicode="&#xaa;" horiz-adv-x="815" d="M150 977q0 96 57 139t168 43q53 0 95 -8t50 -14q0 143 -135 143q-88 0 -180 -35v101q94 37 186 36q252 0 252 -239v-170q0 -182 -248 -182q-98 0 -171.5 41.5t-73.5 144.5zM272 979q0 -51 36 -72.5t89 -21.5q123 0 123 86v86q-12 4 -44 11t-66 7q-55 0 -96.5 -20.5 t-41.5 -75.5z" />
<glyph unicode="&#xab;" horiz-adv-x="1198" d="M66 522l346 389h239l-366 -389l366 -391h-239zM487 522l347 389h239l-366 -389l366 -391h-239z" />
<glyph unicode="&#xac;" horiz-adv-x="1282" d="M199 510v160h884v-355h-157v195h-727z" />
<glyph unicode="&#xad;" horiz-adv-x="1228" d="M162 530v175h624v-175h-624z" />
<glyph unicode="&#xae;" horiz-adv-x="1593" d="M98 682q0 190 94.5 351t255 255t351.5 94q190 0 351 -94t255 -255t94 -351q0 -188 -94 -349t-255 -255t-351 -94q-189 0 -350.5 94t-256 255t-94.5 349zM188 682q0 -164 82 -304t222.5 -223t306.5 -83t306 83t222 223t82 304q0 166 -82 307t-222 223t-306 82t-306.5 -83 t-222.5 -223t-82 -306zM530 283v798h299q135 0 212 -61.5t77 -177.5q0 -109 -56 -163t-122 -71l211 -325h-141l-189 307h-168v-307h-123zM653 694h178q92 0 127 38t35 102q0 141 -162 141h-178v-281z" />
<glyph unicode="&#xaf;" horiz-adv-x="819" d="M154 1159v146h516v-146h-516z" />
<glyph unicode="&#xb0;" horiz-adv-x="792" d="M168 1143q0 111 57.5 169t165.5 58q109 0 166 -58.5t57 -168.5q0 -111 -57 -169.5t-166 -58.5q-108 0 -165.5 58.5t-57.5 169.5zM258 1143q0 -74 32 -106.5t101 -32.5q70 0 101.5 32.5t31.5 106.5t-31.5 106.5t-101.5 32.5t-101.5 -32.5t-31.5 -106.5z" />
<glyph unicode="&#xb1;" horiz-adv-x="1198" d="M233 51v150h732v-150h-732zM233 602v154h289v288h156v-288h287v-154h-287v-291h-156v291h-289z" />
<glyph unicode="&#xb2;" horiz-adv-x="677" d="M102 948v92q121 88 212.5 193.5t91.5 206.5q0 47 -35 76.5t-88 29.5q-82 0 -174 -65v149q100 61 208 61q135 0 200 -62t65 -151q0 -96 -70 -196t-174 -180h252v-154h-488z" />
<glyph unicode="&#xb3;" horiz-adv-x="669" d="M100 989v143q47 -27 90 -42t93 -15q57 0 95 26.5t38 77.5q0 45 -38 71t-97 26h-80v121h82q41 0 68.5 21.5t27.5 66.5q0 29 -31 48t-78 19q-78 0 -151 -39v135q82 43 176 43q119 0 189.5 -56t70.5 -142q0 -45 -19.5 -78t-44 -50.5t-36.5 -19.5q57 -29 96 -69.5t39 -120.5 q0 -96 -78 -156.5t-207 -60.5q-94 0 -205 51z" />
<glyph unicode="&#xb4;" horiz-adv-x="505" d="M125 1145l106 241h215l-194 -241h-127z" />
<glyph unicode="&#xb5;" horiz-adv-x="1269" d="M203 -430v1452h209v-662q0 -84 48 -138t193 -54q113 0 219 31v823h209v-930q-63 -33 -184 -70.5t-268 -37.5q-100 0 -156.5 29.5t-60.5 31.5v-475h-209z" />
<glyph unicode="&#xb6;" horiz-adv-x="962" d="M78 924q0 213 128 327.5t369 114.5h248v-1366h-176v479h-72q-242 0 -369.5 114t-127.5 331z" />
<glyph unicode="&#xb7;" horiz-adv-x="667" d="M231 459v198h201v-198h-201z" />
<glyph unicode="&#xb8;" horiz-adv-x="538" d="M106 -258l175 248h151l-119 -248h-207z" />
<glyph unicode="&#xb9;" horiz-adv-x="489" d="M86 1417v176l141 90h127v-735h-172v528z" />
<glyph unicode="&#xba;" horiz-adv-x="858" d="M154 1090q0 158 75.5 226t194.5 68q117 0 192.5 -67.5t75.5 -226.5q0 -158 -75.5 -225.5t-192.5 -67.5t-193.5 67.5t-76.5 225.5zM270 1090q0 -102 37 -149.5t117 -47.5t115.5 47t35.5 150q0 104 -35.5 151t-115.5 47t-117 -47t-37 -151z" />
<glyph unicode="&#xbb;" horiz-adv-x="1204" d="M129 131l365 391l-365 389h238l348 -389l-348 -391h-238zM549 131l366 391l-366 389h239l349 -389l-349 -391h-239z" />
<glyph unicode="&#xbc;" horiz-adv-x="1509" d="M86 1112v176l141 90h127v-735h-172v528zM133 -45l877 1448h172l-877 -1448h-172zM837 178v137l342 422h127v-424h101v-135h-101v-176h-166v176h-303zM989 313h151v187z" />
<glyph unicode="&#xbd;" horiz-adv-x="1447" d="M86 1112v176l141 90h127v-735h-172v528zM123 -45l877 1448h172l-877 -1448h-172zM858 2v92q121 88 212.5 193.5t91.5 206.5q0 47 -35 76.5t-88 29.5q-82 0 -174 -65v149q100 61 208 61q135 0 200 -62t65 -151q0 -96 -70 -196t-174 -180h252v-154h-488z" />
<glyph unicode="&#xbe;" horiz-adv-x="1566" d="M100 694v144q47 -27 90 -42.5t93 -15.5q57 0 95 27t38 78q0 45 -38 70.5t-97 25.5h-80v121h82q41 0 68.5 21.5t27.5 66.5q0 29 -31 48t-78 19q-78 0 -151 -38v135q82 43 176 43q119 0 189.5 -56.5t70.5 -142.5q0 -45 -19.5 -78t-44 -50t-36.5 -19q57 -29 96 -70t39 -121 q0 -96 -78 -156.5t-207 -60.5q-94 0 -205 51zM268 -45l877 1448h172l-877 -1448h-172zM895 178v137l342 422h127v-424h101v-135h-101v-176h-166v176h-303zM1047 313h151v187z" />
<glyph unicode="&#xbf;" horiz-adv-x="1015" d="M152 25q0 98 37.5 155.5t113.5 122.5q51 45 82 80t52.5 87t21.5 124v72h186v-80q0 -100 -26.5 -171t-65.5 -114t-96 -92q-61 -53 -89 -91t-28 -93q0 -104 64.5 -154.5t181.5 -50.5q82 0 157.5 27.5t126.5 66.5v-190q-33 -25 -117.5 -54.5t-189.5 -29.5 q-102 0 -195.5 37.5t-154.5 123.5t-61 224zM446 829v193h211v-193h-211z" />
<glyph unicode="&#xc0;" horiz-adv-x="1359" d="M35 0l532 1366h240l518 -1366h-238l-135 371h-559l-133 -371h-225zM446 1706h203l107 -234h-127zM461 555h424l-213 586z" />
<glyph unicode="&#xc1;" horiz-adv-x="1359" d="M35 0l532 1366h240l518 -1366h-238l-135 371h-559l-133 -371h-225zM461 555h424l-213 586zM629 1489l98 233h224l-201 -233h-121z" />
<glyph unicode="&#xc2;" horiz-adv-x="1359" d="M35 0l532 1366h240l518 -1366h-238l-135 371h-559l-133 -371h-225zM422 1467l172 247h178l170 -247h-141l-119 133l-119 -133h-141zM461 555h424l-213 586z" />
<glyph unicode="&#xc3;" horiz-adv-x="1359" d="M35 0l532 1366h240l518 -1366h-238l-135 371h-559l-133 -371h-225zM365 1529q0 90 56.5 148.5t131.5 58.5q49 0 89 -19.5t90 -55.5q39 -29 62.5 -42.5t49.5 -13.5q29 0 45.5 20.5t16.5 59.5q0 18 -2 29h123q2 -12 2 -35q0 -92 -56.5 -150.5t-142.5 -58.5q-55 0 -98 21.5 t-90 58.5q-35 27 -54.5 38t-40.5 11q-29 0 -47 -23.5t-18 -64.5q0 -20 2 -31h-115q-4 33 -4 49zM461 555h424l-213 586z" />
<glyph unicode="&#xc4;" horiz-adv-x="1359" d="M35 0l532 1366h240l518 -1366h-238l-135 371h-559l-133 -371h-225zM407 1468v180h207v-180h-207zM461 555h424l-213 586zM743 1468v180h205v-180h-205z" />
<glyph unicode="&#xc5;" horiz-adv-x="1359" d="M35 0l526 1352q-104 39 -104 172q0 96 54 143t169 47q223 0 223 -190q0 -121 -92 -168l514 -1356h-238l-135 371h-559l-133 -371h-225zM461 555h424l-213 586zM573 1524q0 -49 22.5 -68.5t84.5 -19.5q59 0 81.5 19.5t22.5 68.5t-22.5 68.5t-81.5 19.5q-62 0 -84.5 -19.5 t-22.5 -68.5z" />
<glyph unicode="&#xc6;" horiz-adv-x="2023" d="M35 0l942 1366h901v-190h-645v-394h563v-192h-563v-397h645v-193h-872v373h-467l-248 -373h-256zM664 561h342v514z" />
<glyph unicode="&#xc7;" horiz-adv-x="1280" d="M98 684q0 705 650 705q211 0 423 -101v-203q-197 115 -395 115q-229 0 -336.5 -123t-107.5 -395t108.5 -392t341.5 -120q201 0 389 111v-203q-92 -45 -198.5 -70.5t-210.5 -27.5l-103 -216h-206l157 224q-512 72 -512 696z" />
<glyph unicode="&#xc8;" d="M162 0v1366h895v-190h-668v-396h582v-192h-584v-398h670v-190h-895zM391 1706h203l107 -234h-127z" />
<glyph unicode="&#xc9;" d="M162 0v1366h895v-190h-668v-396h582v-192h-584v-398h670v-190h-895zM573 1489l98 233h224l-201 -233h-121z" />
<glyph unicode="&#xca;" d="M162 0v1366h895v-190h-668v-396h582v-192h-584v-398h670v-190h-895zM367 1467l172 247h178l170 -247h-141l-119 133l-119 -133h-141z" />
<glyph unicode="&#xcb;" d="M162 0v1366h895v-190h-668v-396h582v-192h-584v-398h670v-190h-895zM352 1468v180h207v-180h-207zM688 1468v180h205v-180h-205z" />
<glyph unicode="&#xcc;" horiz-adv-x="550" d="M45 1706h203l107 -234h-127zM162 0v1366h227v-1366h-227z" />
<glyph unicode="&#xcd;" horiz-adv-x="550" d="M162 0v1366h227v-1366h-227zM227 1489l98 233h224l-201 -233h-121z" />
<glyph unicode="&#xce;" horiz-adv-x="550" d="M20 1467l172 247h178l170 -247h-141l-119 133l-119 -133h-141zM162 0v1366h227v-1366h-227z" />
<glyph unicode="&#xcf;" horiz-adv-x="550" d="M6 1468v180h207v-180h-207zM162 0v1366h227v-1366h-227zM342 1468v180h205v-180h-205z" />
<glyph unicode="&#xd0;" horiz-adv-x="1404" d="M14 612v144h148v610h479q655 0 655 -682q0 -684 -655 -684h-479v612h-148zM387 190h231q230 0 338.5 119t108.5 375t-108.5 375t-338.5 119h-231v-422h176v-144h-176v-422z" />
<glyph unicode="&#xd1;" horiz-adv-x="1480" d="M162 0v1366h217l725 -1004v1004h215v-1366h-203l-739 1016v-1016h-215zM424 1529q0 90 56.5 148.5t131.5 58.5q49 0 89 -19.5t90 -55.5q39 -29 62.5 -42.5t49.5 -13.5q29 0 45.5 20.5t16.5 59.5q0 18 -2 29h123q2 -12 2 -35q0 -92 -56.5 -150.5t-142.5 -58.5 q-55 0 -98 21.5t-90 58.5q-35 27 -54.5 38t-40.5 11q-29 0 -47 -23.5t-18 -64.5q0 -20 2 -31h-115q-4 33 -4 49z" />
<glyph unicode="&#xd2;" horiz-adv-x="1488" d="M109 682q0 348 161.5 527.5t472.5 179.5q309 0 473 -177.5t164 -529.5q0 -348 -162.5 -527.5t-474.5 -179.5q-307 0 -470.5 178.5t-163.5 528.5zM340 682q0 -268 98.5 -389t304.5 -121q209 0 306.5 122t97.5 390q0 266 -98.5 387t-305.5 121t-305 -121t-98 -389z M520 1725h203l107 -234h-127z" />
<glyph unicode="&#xd3;" horiz-adv-x="1488" d="M109 682q0 348 161.5 527.5t472.5 179.5q309 0 473 -177.5t164 -529.5q0 -348 -162.5 -527.5t-474.5 -179.5q-307 0 -470.5 178.5t-163.5 528.5zM340 682q0 -268 98.5 -389t304.5 -121q209 0 306.5 122t97.5 390q0 266 -98.5 387t-305.5 121t-305 -121t-98 -389z M702 1507l98 233h224l-201 -233h-121z" />
<glyph unicode="&#xd4;" horiz-adv-x="1488" d="M109 682q0 348 161.5 527.5t472.5 179.5q309 0 473 -177.5t164 -529.5q0 -348 -162.5 -527.5t-474.5 -179.5q-307 0 -470.5 178.5t-163.5 528.5zM340 682q0 -268 98.5 -389t304.5 -121q209 0 306.5 122t97.5 390q0 266 -98.5 387t-305.5 121t-305 -121t-98 -389z M496 1485l172 247h178l170 -247h-141l-119 133l-119 -133h-141z" />
<glyph unicode="&#xd5;" horiz-adv-x="1488" d="M109 682q0 348 161.5 527.5t472.5 179.5q309 0 473 -177.5t164 -529.5q0 -348 -162.5 -527.5t-474.5 -179.5q-307 0 -470.5 178.5t-163.5 528.5zM340 682q0 -268 98.5 -389t304.5 -121q209 0 306.5 122t97.5 390q0 266 -98.5 387t-305.5 121t-305 -121t-98 -389z M438 1548q0 90 56.5 148.5t131.5 58.5q49 0 89 -19.5t90 -55.5q39 -29 62.5 -42.5t49.5 -13.5q29 0 45.5 20.5t16.5 59.5q0 18 -2 29h123q2 -12 2 -35q0 -92 -56.5 -150.5t-142.5 -58.5q-55 0 -98 21.5t-90 58.5q-35 27 -54.5 38t-40.5 11q-29 0 -47 -23.5t-18 -64.5 q0 -20 2 -31h-115q-4 33 -4 49z" />
<glyph unicode="&#xd6;" horiz-adv-x="1488" d="M109 682q0 348 161.5 527.5t472.5 179.5q309 0 473 -177.5t164 -529.5q0 -348 -162.5 -527.5t-474.5 -179.5q-307 0 -470.5 178.5t-163.5 528.5zM340 682q0 -268 98.5 -389t304.5 -121q209 0 306.5 122t97.5 390q0 266 -98.5 387t-305.5 121t-305 -121t-98 -389z M481 1487v180h207v-180h-207zM817 1487v180h205v-180h-205z" />
<glyph unicode="&#xd7;" horiz-adv-x="1017" d="M156 158l276 366l-276 367h159l197 -260l199 260h159l-276 -367l276 -366h-159l-199 260l-197 -260h-159z" />
<glyph unicode="&#xd8;" horiz-adv-x="1488" d="M88 0l158 184q-137 178 -137 498q0 348 161.5 527.5t472.5 179.5q266 0 424 -132l93 109h172l-177 -205q125 -174 125 -479q0 -348 -162.5 -527.5t-474.5 -179.5q-252 0 -405 117l-80 -92h-170zM340 682q0 -205 57 -322l631 736q-98 96 -285 96q-207 0 -305 -121 t-98 -389zM477 254q94 -82 266 -82q209 0 306.5 122t97.5 390q0 186 -45 297z" />
<glyph unicode="&#xd9;" horiz-adv-x="1445" d="M162 537v829h231v-827q0 -193 84 -286t252 -93q338 0 338 379v827h217v-829q0 -276 -145.5 -422t-401.5 -146q-280 0 -427.5 143.5t-147.5 424.5zM487 1712h203l107 -234h-127z" />
<glyph unicode="&#xda;" horiz-adv-x="1445" d="M162 537v829h231v-827q0 -193 84 -286t252 -93q338 0 338 379v827h217v-829q0 -276 -145.5 -422t-401.5 -146q-280 0 -427.5 143.5t-147.5 424.5zM670 1495l98 233h224l-201 -233h-121z" />
<glyph unicode="&#xdb;" horiz-adv-x="1445" d="M162 537v829h231v-827q0 -193 84 -286t252 -93q338 0 338 379v827h217v-829q0 -276 -145.5 -422t-401.5 -146q-280 0 -427.5 143.5t-147.5 424.5zM463 1473l172 247h178l170 -247h-141l-119 133l-119 -133h-141z" />
<glyph unicode="&#xdc;" horiz-adv-x="1445" d="M162 537v829h231v-827q0 -193 84 -286t252 -93q338 0 338 379v827h217v-829q0 -276 -145.5 -422t-401.5 -146q-280 0 -427.5 143.5t-147.5 424.5zM448 1474v180h207v-180h-207zM784 1474v180h205v-180h-205z" />
<glyph unicode="&#xdd;" horiz-adv-x="1306" d="M33 1366h276l365 -567l350 567h244l-496 -756v-610h-225v612zM629 1489l98 233h224l-201 -233h-121z" />
<glyph unicode="&#xde;" horiz-adv-x="1218" d="M176 0v1366h209v-205h240q233 0 359 -114.5t126 -325.5t-126 -325.5t-359 -114.5h-240v-281h-209zM385 467h215q176 0 239.5 71.5t63.5 182.5t-63.5 182.5t-239.5 71.5h-215v-508z" />
<glyph unicode="&#xdf;" horiz-adv-x="1241" d="M152 0v879q0 233 115.5 378.5t340.5 145.5q211 0 342 -88t131 -238q0 -121 -65.5 -200.5t-147.5 -106.5q63 -20 127 -70.5t107 -135.5t43 -197q0 -109 -46 -199t-139.5 -143.5t-228.5 -53.5q-84 0 -199 29v193q98 -45 183 -46q100 0 155.5 59.5t55.5 170.5 q0 84 -43 145.5t-110.5 92t-143.5 32.5v178q117 0 174 55.5t57 153.5q0 92 -67.5 139.5t-174.5 47.5q-127 0 -189 -86t-62 -246v-889h-215z" />
<glyph unicode="&#xe0;" horiz-adv-x="1150" d="M104 299q0 168 97.5 252t275.5 84q184 0 307 -74v98q0 209 -252 209q-90 0 -180 -27.5t-149 -76.5v201q57 37 166.5 61.5t226.5 24.5q168 0 285.5 -81t115.5 -261v-492q0 -139 -122.5 -193.5t-350.5 -54.5q-182 0 -301 76t-119 254zM317 309q0 -86 69 -129t163 -43 q129 0 182 18.5t53 73.5v199q-104 45 -229 45q-117 0 -177.5 -41t-60.5 -123zM335 1404h213l109 -241h-127z" />
<glyph unicode="&#xe1;" horiz-adv-x="1150" d="M104 299q0 168 97.5 252t275.5 84q184 0 307 -74v98q0 209 -252 209q-90 0 -180 -27.5t-149 -76.5v201q57 37 166.5 61.5t226.5 24.5q168 0 285.5 -81t115.5 -261v-492q0 -139 -122.5 -193.5t-350.5 -54.5q-182 0 -301 76t-119 254zM317 309q0 -86 69 -129t163 -43 q129 0 182 18.5t53 73.5v199q-104 45 -229 45q-117 0 -177.5 -41t-60.5 -123zM518 1163l107 241h215l-195 -241h-127z" />
<glyph unicode="&#xe2;" horiz-adv-x="1150" d="M104 299q0 168 97.5 252t275.5 84q184 0 307 -74v98q0 209 -252 209q-90 0 -180 -27.5t-149 -76.5v201q57 37 166.5 61.5t226.5 24.5q168 0 285.5 -81t115.5 -261v-492q0 -139 -122.5 -193.5t-350.5 -54.5q-182 0 -301 76t-119 254zM317 309q0 -86 69 -129t163 -43 q129 0 182 18.5t53 73.5v199q-104 45 -229 45q-117 0 -177.5 -41t-60.5 -123zM336 1167l172 248h178l170 -248h-141l-119 133l-118 -133h-142z" />
<glyph unicode="&#xe3;" horiz-adv-x="1150" d="M104 299q0 168 97.5 252t275.5 84q184 0 307 -74v98q0 209 -252 209q-90 0 -180 -27.5t-149 -76.5v201q57 37 166.5 61.5t226.5 24.5q168 0 285.5 -81t115.5 -261v-492q0 -139 -122.5 -193.5t-350.5 -54.5q-182 0 -301 76t-119 254zM264 1181q0 90 56.5 148.5t131.5 58.5 q49 0 89 -19.5t90 -56.5q39 -29 62.5 -42t49.5 -13q29 0 45.5 20.5t16.5 59.5q0 18 -2 29h123q2 -12 2 -35q0 -92 -56.5 -150.5t-142.5 -58.5q-55 0 -98 21.5t-90 58.5q-35 27 -54.5 38t-40.5 11q-29 0 -47 -23.5t-18 -64.5q0 -20 2 -31h-115q-4 33 -4 49zM317 309 q0 -86 69 -129t163 -43q129 0 182 18.5t53 73.5v199q-104 45 -229 45q-117 0 -177.5 -41t-60.5 -123z" />
<glyph unicode="&#xe4;" horiz-adv-x="1150" d="M104 299q0 168 97.5 252t275.5 84q184 0 307 -74v98q0 209 -252 209q-90 0 -180 -27.5t-149 -76.5v201q57 37 166.5 61.5t226.5 24.5q168 0 285.5 -81t115.5 -261v-492q0 -139 -122.5 -193.5t-350.5 -54.5q-182 0 -301 76t-119 254zM317 309q0 -86 69 -129t163 -43 q129 0 182 18.5t53 73.5v199q-104 45 -229 45q-117 0 -177.5 -41t-60.5 -123zM326 1169v180h207v-180h-207zM662 1169v180h205v-180h-205z" />
<glyph unicode="&#xe5;" horiz-adv-x="1150" d="M104 299q0 168 97.5 252t275.5 84q184 0 307 -74v98q0 209 -252 209q-90 0 -180 -27.5t-149 -76.5v201q57 37 166.5 61.5t226.5 24.5q168 0 285.5 -81t115.5 -261v-492q0 -139 -122.5 -193.5t-350.5 -54.5q-182 0 -301 76t-119 254zM317 309q0 -86 69 -129t163 -43 q129 0 182 18.5t53 73.5v199q-104 45 -229 45q-117 0 -177.5 -41t-60.5 -123zM367 1304q0 96 54 143.5t169 47.5q223 0 223 -191q0 -190 -223 -190q-115 0 -169 47t-54 143zM483 1304q0 -49 22.5 -68.5t84.5 -19.5q59 0 81.5 19.5t22.5 68.5t-22.5 68.5t-81.5 19.5 q-61 0 -84 -19.5t-23 -68.5z" />
<glyph unicode="&#xe6;" horiz-adv-x="1820" d="M104 293q0 172 111 257t301 85q74 0 143.5 -17.5t124.5 -48.5v88q0 209 -252 209q-88 0 -179 -27.5t-150 -74.5v201q57 37 166.5 61.5t226.5 24.5q100 0 187 -30t143 -93q121 123 336 123q241 0 352.5 -155t107.5 -431h-725q0 -156 81 -235.5t237 -79.5q96 0 181 24.5 t149 65.5v-201q-152 -76 -367 -76q-115 0 -208 35t-157 100q-178 -135 -383 -135q-197 0 -311.5 79t-114.5 251zM317 297q0 -82 68 -124t168 -42q80 0 156.5 21.5t124.5 62.5q-43 88 -50 213q-113 45 -229 45q-238 0 -238 -176zM1004 625h499q-12 129 -72.5 189t-175.5 60 q-110 0 -171.5 -57t-79.5 -192z" />
<glyph unicode="&#xe7;" horiz-adv-x="1015" d="M98 508q0 287 142.5 415t361.5 128q166 0 316 -62v-192q-156 66 -285 65q-162 0 -242 -81t-80 -257q0 -184 78 -269t250 -85q139 0 281 68v-193q-115 -51 -248 -63l-115 -240h-207l170 242q-186 23 -304 148.5t-118 375.5z" />
<glyph unicode="&#xe8;" horiz-adv-x="1132" d="M98 508q0 264 125 404.5t352 140.5q240 0 351.5 -155t109.5 -433h-721q10 -152 89 -230.5t225 -78.5q94 0 180 23.5t152 60.5v-201q-160 -70 -367 -70q-231 0 -363.5 140.5t-132.5 398.5zM319 625h498q-14 131 -73.5 191.5t-174.5 60.5q-108 0 -169.5 -57.5t-80.5 -194.5 zM329 1398h213l109 -241h-127z" />
<glyph unicode="&#xe9;" horiz-adv-x="1132" d="M98 508q0 264 125 404.5t352 140.5q240 0 351.5 -155t109.5 -433h-721q10 -152 89 -230.5t225 -78.5q94 0 180 23.5t152 60.5v-201q-160 -70 -367 -70q-231 0 -363.5 140.5t-132.5 398.5zM319 625h498q-14 131 -73.5 191.5t-174.5 60.5q-108 0 -169.5 -57.5t-80.5 -194.5 zM512 1157l107 241h215l-195 -241h-127z" />
<glyph unicode="&#xea;" horiz-adv-x="1132" d="M98 508q0 264 125 404.5t352 140.5q240 0 351.5 -155t109.5 -433h-721q10 -152 89 -230.5t225 -78.5q94 0 180 23.5t152 60.5v-201q-160 -70 -367 -70q-231 0 -363.5 140.5t-132.5 398.5zM319 625h498q-14 131 -73.5 191.5t-174.5 60.5q-108 0 -169.5 -57.5t-80.5 -194.5 zM330 1161l172 248h178l170 -248h-141l-119 133l-118 -133h-142z" />
<glyph unicode="&#xeb;" horiz-adv-x="1132" d="M98 508q0 264 125 404.5t352 140.5q240 0 351.5 -155t109.5 -433h-721q10 -152 89 -230.5t225 -78.5q94 0 180 23.5t152 60.5v-201q-160 -70 -367 -70q-231 0 -363.5 140.5t-132.5 398.5zM319 625h498q-14 131 -73.5 191.5t-174.5 60.5q-108 0 -169.5 -57.5t-80.5 -194.5 zM319 1163v180h207v-180h-207zM655 1163v180h205v-180h-205z" />
<glyph unicode="&#xec;" horiz-adv-x="608" d="M68 1391h178l121 -236h-123zM201 0v1022h209v-1022h-209z" />
<glyph unicode="&#xed;" horiz-adv-x="608" d="M201 0v1022h209v-1022h-209zM246 1151l119 235h176l-176 -235h-119z" />
<glyph unicode="&#xee;" horiz-adv-x="608" d="M72 1151l188 246h88l191 -246h-144l-90 127l-92 -127h-141zM201 0v1022h209v-1022h-209z" />
<glyph unicode="&#xef;" horiz-adv-x="608" d="M53 1151v180h187v-180h-187zM201 0v1022h209v-1022h-209zM369 1151v180h188v-180h-188z" />
<glyph unicode="&#xf0;" horiz-adv-x="1175" d="M98 510q0 264 116 402.5t331 138.5q127 0 217 -62q-55 94 -127 176l-262 -45l-29 140l166 28q-80 66 -158 121v8h291q51 -41 100 -90l222 37l28 -135l-143 -25q221 -292 221 -626q0 -297 -121 -456t-358 -159q-248 0 -371 138.5t-123 408.5zM311 510q0 -180 66.5 -272.5 t212.5 -92.5q88 0 147.5 38t92 136.5t34.5 272.5q0 106 -24 199q-47 45 -111.5 70.5t-138.5 25.5q-279 0 -279 -377z" />
<glyph unicode="&#xf1;" d="M152 0v944q92 47 224 77t253 30q215 0 317.5 -90.5t102.5 -280.5v-680h-215v651q0 215 -244 215q-117 0 -223 -39v-827h-215zM276 1175q0 90 56.5 148.5t131.5 58.5q49 0 89 -19.5t90 -56.5q39 -29 62.5 -42t49.5 -13q29 0 45.5 20.5t16.5 59.5q0 18 -2 29h123 q2 -12 2 -35q0 -92 -56.5 -150.5t-142.5 -58.5q-55 0 -98 21.5t-90 58.5q-35 27 -54.5 38t-40.5 11q-29 0 -47 -23.5t-18 -64.5q0 -20 2 -31h-115q-4 33 -4 49z" />
<glyph unicode="&#xf2;" horiz-adv-x="1183" d="M98 514q0 539 492 539q248 0 372.5 -138.5t124.5 -400.5t-129 -403.5t-366 -141.5q-246 0 -370 139.5t-124 405.5zM311 514q0 -176 66.5 -269t212.5 -93q282 0 282 362q0 180 -67.5 269t-214.5 89q-150 0 -214.5 -91t-64.5 -267zM342 1404h213l109 -241h-127z" />
<glyph unicode="&#xf3;" horiz-adv-x="1183" d="M98 514q0 539 492 539q248 0 372.5 -138.5t124.5 -400.5t-129 -403.5t-366 -141.5q-246 0 -370 139.5t-124 405.5zM311 514q0 -176 66.5 -269t212.5 -93q282 0 282 362q0 180 -67.5 269t-214.5 89q-150 0 -214.5 -91t-64.5 -267zM524 1163l107 241h215l-195 -241h-127z " />
<glyph unicode="&#xf4;" horiz-adv-x="1183" d="M98 514q0 539 492 539q248 0 372.5 -138.5t124.5 -400.5t-129 -403.5t-366 -141.5q-246 0 -370 139.5t-124 405.5zM311 514q0 -176 66.5 -269t212.5 -93q282 0 282 362q0 180 -67.5 269t-214.5 89q-150 0 -214.5 -91t-64.5 -267zM342 1167l172 248h178l170 -248h-141 l-119 133l-118 -133h-142z" />
<glyph unicode="&#xf5;" horiz-adv-x="1183" d="M98 514q0 539 492 539q248 0 372.5 -138.5t124.5 -400.5t-129 -403.5t-366 -141.5q-246 0 -370 139.5t-124 405.5zM270 1181q0 90 56.5 148.5t131.5 58.5q49 0 89 -19.5t90 -56.5q39 -29 62.5 -42t49.5 -13q29 0 45.5 20.5t16.5 59.5q0 18 -2 29h123q2 -12 2 -35 q0 -92 -56.5 -150.5t-142.5 -58.5q-55 0 -98 21.5t-90 58.5q-35 27 -54.5 38t-40.5 11q-29 0 -47 -23.5t-18 -64.5q0 -20 2 -31h-115q-4 33 -4 49zM311 514q0 -176 66.5 -269t212.5 -93q282 0 282 362q0 180 -67.5 269t-214.5 89q-150 0 -214.5 -91t-64.5 -267z" />
<glyph unicode="&#xf6;" horiz-adv-x="1183" d="M98 514q0 539 492 539q248 0 372.5 -138.5t124.5 -400.5t-129 -403.5t-366 -141.5q-246 0 -370 139.5t-124 405.5zM311 514q0 -176 66.5 -269t212.5 -93q282 0 282 362q0 180 -67.5 269t-214.5 89q-150 0 -214.5 -91t-64.5 -267zM332 1169v180h207v-180h-207zM668 1169 v180h205v-180h-205z" />
<glyph unicode="&#xf7;" horiz-adv-x="1286" d="M215 451v155h858v-155h-858zM549 121v186h190v-186h-190zM549 750v186h190v-186h-190z" />
<glyph unicode="&#xf8;" d="M59 0l129 152q-90 137 -90 362q0 539 492 539q178 0 299 -76l37 45h211l-136 -158q86 -135 86 -350q0 -262 -129 -403.5t-366 -141.5q-174 0 -287 72l-35 -41h-211zM311 514q0 -108 25 -186l424 499q-68 45 -170 45q-150 0 -214.5 -91t-64.5 -267zM432 193 q63 -41 158 -41q283 0 282 362q0 104 -20 172z" />
<glyph unicode="&#xf9;" horiz-adv-x="1204" d="M152 383v645h215v-614q0 -131 58 -193.5t181 -62.5t181.5 62.5t58.5 193.5v614h207v-645q0 -203 -117 -308.5t-330 -105.5q-215 0 -334.5 105.5t-119.5 308.5zM354 1398h213l109 -241h-127z" />
<glyph unicode="&#xfa;" horiz-adv-x="1204" d="M152 383v645h215v-614q0 -131 58 -193.5t181 -62.5t181.5 62.5t58.5 193.5v614h207v-645q0 -203 -117 -308.5t-330 -105.5q-215 0 -334.5 105.5t-119.5 308.5zM537 1157l107 241h215l-195 -241h-127z" />
<glyph unicode="&#xfb;" horiz-adv-x="1204" d="M152 383v645h215v-614q0 -131 58 -193.5t181 -62.5t181.5 62.5t58.5 193.5v614h207v-645q0 -203 -117 -308.5t-330 -105.5q-215 0 -334.5 105.5t-119.5 308.5zM354 1161l172 248h178l170 -248h-141l-119 133l-118 -133h-142z" />
<glyph unicode="&#xfc;" horiz-adv-x="1204" d="M152 383v645h215v-614q0 -131 58 -193.5t181 -62.5t181.5 62.5t58.5 193.5v614h207v-645q0 -203 -117 -308.5t-330 -105.5q-215 0 -334.5 105.5t-119.5 308.5zM344 1163v180h207v-180h-207zM680 1163v180h205v-180h-205z" />
<glyph unicode="&#xfd;" horiz-adv-x="1153" d="M63 1028h244l281 -768l278 768h224l-424 -1091q-131 -334 -355 -334q-80 0 -135 24v185q51 -20 103 -21q80 0 126 53.5t78 161.5zM512 1145l107 241h215l-195 -241h-127z" />
<glyph unicode="&#xfe;" horiz-adv-x="1187" d="M152 -395v1812h213v-405q113 27 235 26q221 0 356.5 -131t135.5 -424q0 -238 -126 -378t-350 -140q-53 0 -123.5 14.5t-127.5 40.5v-415h-213zM365 207q104 -59 219 -60q141 0 213.5 88.5t72.5 251.5q0 172 -60 268.5t-216 96.5q-86 0 -152.5 -19.5t-76.5 -54.5v-571z " />
<glyph unicode="&#xff;" horiz-adv-x="1153" d="M63 1028h244l281 -768l278 768h224l-424 -1091q-131 -334 -355 -334q-80 0 -135 24v185q51 -20 103 -21q80 0 126 53.5t78 161.5zM319 1151v180h207v-180h-207zM655 1151v180h205v-180h-205z" />
<glyph unicode="&#x152;" horiz-adv-x="2189" d="M109 682q0 348 161.5 527.5t472.5 179.5q252 0 408 -117v94h895v-190h-668v-396h582v-192h-584v-10v-388h670v-190h-895v94q-152 -119 -408 -119q-307 0 -470.5 178.5t-163.5 528.5zM340 682q0 -268 98.5 -389t304.5 -121q209 0 306.5 122t97.5 390q0 266 -98.5 387 t-305.5 121t-305 -121t-98 -389z" />
<glyph unicode="&#x153;" horiz-adv-x="1912" d="M98 514q0 539 492 539q270 0 393 -164q123 164 373 164q239 0 351 -155t110 -433h-721q10 -152 89 -230.5t224 -78.5q94 0 180 23.5t152 60.5v-201q-160 -70 -367 -70q-127 0 -227 44t-164 128q-125 -172 -391 -172q-246 0 -370 139.5t-124 405.5zM311 514 q0 -176 66.5 -269t212.5 -93q282 0 282 362q0 180 -67.5 269t-214.5 89q-150 0 -214.5 -91t-64.5 -267zM1100 625h497q-14 131 -73.5 191.5t-173.5 60.5q-109 0 -170.5 -57.5t-79.5 -194.5z" />
<glyph unicode="&#x178;" horiz-adv-x="1306" d="M33 1366h276l365 -567l350 567h244l-496 -756v-610h-225v612zM407 1468v180h207v-180h-207zM743 1468v180h205v-180h-205z" />
<glyph unicode="&#x2c6;" horiz-adv-x="839" d="M166 1155l172 248h178l170 -248h-141l-119 133l-119 -133h-141z" />
<glyph unicode="&#x2dc;" horiz-adv-x="878" d="M113 1151q0 90 56 148.5t132 58.5q51 0 90 -19.5t88 -56.5q39 -29 62.5 -42t50.5 -13q29 0 45 20.5t16 59.5q0 18 -2 28h123q2 -12 2 -35q0 -92 -56 -150t-142 -58q-55 0 -98.5 21.5t-90.5 57.5q-35 27 -54.5 38.5t-39.5 11.5q-29 0 -47.5 -23.5t-18.5 -64.5q0 -20 2 -31 h-114q-4 33 -4 49z" />
<glyph unicode="&#x2000;" horiz-adv-x="877" />
<glyph unicode="&#x2001;" horiz-adv-x="1755" />
<glyph unicode="&#x2002;" horiz-adv-x="877" />
<glyph unicode="&#x2003;" horiz-adv-x="1755" />
<glyph unicode="&#x2004;" horiz-adv-x="585" />
<glyph unicode="&#x2005;" horiz-adv-x="438" />
<glyph unicode="&#x2006;" horiz-adv-x="292" />
<glyph unicode="&#x2007;" horiz-adv-x="292" />
<glyph unicode="&#x2008;" horiz-adv-x="219" />
<glyph unicode="&#x2009;" horiz-adv-x="351" />
<glyph unicode="&#x200a;" horiz-adv-x="97" />
<glyph unicode="&#x2010;" horiz-adv-x="950" d="M162 530v175h624v-175h-624z" />
<glyph unicode="&#x2011;" horiz-adv-x="950" d="M162 530v175h624v-175h-624z" />
<glyph unicode="&#x2012;" horiz-adv-x="950" d="M162 530v175h624v-175h-624z" />
<glyph unicode="&#x2013;" horiz-adv-x="1146" d="M141 512v162h860v-162h-860z" />
<glyph unicode="&#x2014;" horiz-adv-x="1824" d="M162 512v168h1501v-168h-1501z" />
<glyph unicode="&#x2018;" horiz-adv-x="550" d="M96 1384h203l152 -401h-175z" />
<glyph unicode="&#x2019;" horiz-adv-x="550" d="M96 983l152 401h203l-179 -401h-176z" />
<glyph unicode="&#x201a;" horiz-adv-x="638" d="M147 -229l152 401h201l-176 -401h-177z" />
<glyph unicode="&#x201c;" horiz-adv-x="854" d="M96 1384h203l152 -401h-175zM399 1384h203l152 -401h-176z" />
<glyph unicode="&#x201d;" horiz-adv-x="849" d="M96 983l152 401h203l-179 -401h-176zM399 983l152 401h203l-181 -401h-174z" />
<glyph unicode="&#x201e;" horiz-adv-x="942" d="M147 -229l152 401h201l-176 -401h-177zM449 -229l151 401h205l-180 -401h-176z" />
<glyph unicode="&#x2022;" horiz-adv-x="921" d="M180 678q0 76 38 139.5t101.5 100t139.5 36.5q74 0 137 -36.5t101 -100t38 -139.5t-38 -139.5t-101.5 -100.5t-136.5 -37q-76 0 -139.5 37t-101.5 100.5t-38 139.5z" />
<glyph unicode="&#x2026;" horiz-adv-x="1658" d="M219 0v199h203v-199h-203zM731 0v199h203v-199h-203zM1243 0v199h203v-199h-203z" />
<glyph unicode="&#x202f;" horiz-adv-x="351" />
<glyph unicode="&#x2039;" horiz-adv-x="743" d="M63 522l347 389h239l-366 -389l366 -391h-239z" />
<glyph unicode="&#x203a;" horiz-adv-x="796" d="M121 131l364 391l-364 389h237l349 -389l-349 -391h-237z" />
<glyph unicode="&#x205f;" horiz-adv-x="438" />
<glyph unicode="&#x20ac;" horiz-adv-x="1413" d="M100 449v143h146q-4 61 -4 92t4 92h-146v144h164q51 238 210 351t403 113q211 0 423 -86v-190q-201 88 -405 88q-168 0 -269.5 -66.5t-142.5 -209.5h580v-144h-608q-4 -57 -4 -92t4 -92h608v-143h-580q41 -143 142.5 -210t269.5 -67q209 0 405 86v-190q-217 -84 -423 -84 q-244 0 -403 113.5t-210 351.5h-164z" />
<glyph unicode="&#x2122;" horiz-adv-x="1560" d="M100 1268v98h562v-98h-230v-584h-104v584h-228zM766 684v682h106l213 -311l213 311h109v-682h-104v520l-218 -313l-215 313v-520h-104z" />
<glyph unicode="&#x25fc;" horiz-adv-x="1024" d="M0 0v1024h1024v-1024h-1024z" />
</font>
</defs>
</svg>
