<?xml version="1.0" standalone="no"?>
<!DOCTYPE svg PUBLIC "-//W3C//DTD SVG 1.1//EN" "http://www.w3.org/Graphics/SVG/1.1/DTD/svg11.dtd" >
<svg xmlns="http://www.w3.org/2000/svg" xmlns:xlink="http://www.w3.org/1999/xlink" version="1.1">
<metadata></metadata>
<defs>
<font id="maven_proregular" horiz-adv-x="1165" >
<font-face units-per-em="2048" ascent="1638" descent="-410" />
<missing-glyph horiz-adv-x="593" />
<glyph unicode="&#xfb01;" horiz-adv-x="1216" d="M82 887v135h176v55q0 170 59.5 253t128 102.5t142.5 19.5q55 0 98 -12v-131q-41 8 -74 8q-66 0 -106.5 -12.5t-70 -63.5t-29.5 -162v-57h280v-135h-280v-887h-148v887h-176zM889 1204v162h164v-162h-164zM897 0v1022h147v-1022h-147z" />
<glyph unicode="&#xfb02;" horiz-adv-x="1202" d="M82 887v135h176v55q0 170 59.5 253t128 102.5t142.5 19.5q55 0 98 -12v-131q-41 8 -74 8q-66 0 -106.5 -12.5t-70 -63.5t-29.5 -162v-57h280v-135h-280v-887h-148v887h-176zM891 0v1411h147v-1411h-147z" />
<glyph horiz-adv-x="0" />
<glyph unicode="&#xd;" horiz-adv-x="593" />
<glyph horiz-adv-x="0" />
<glyph horiz-adv-x="0" />
<glyph unicode=" "  horiz-adv-x="593" />
<glyph unicode="&#x09;" horiz-adv-x="593" />
<glyph unicode="&#xa0;" horiz-adv-x="593" />
<glyph unicode="!" horiz-adv-x="761" d="M303 0v164h164v-164h-164zM311 1366h148l-15 -1022h-118z" />
<glyph unicode="&#x22;" horiz-adv-x="780" d="M166 1384h170l-35 -411h-98zM440 1384h170l-37 -411h-98z" />
<glyph unicode="#" horiz-adv-x="1210" d="M145 258v123h189l55 326h-186v122h209l41 242h125l-41 -242h270l43 242h125l-43 -242h147v-122h-168l-57 -326h166v-123h-186l-37 -219h-125l37 219h-271l-39 -219h-125l39 219h-168zM459 381h270l57 326h-272z" />
<glyph unicode="$" horiz-adv-x="1136" d="M133 96v160q74 -61 185.5 -101t248.5 -40q150 0 223.5 63.5t73.5 171.5q0 80 -43 132.5t-102.5 82t-177.5 74.5q-127 43 -202 82t-128 114.5t-53 200.5q0 76 35.5 152t115.5 130t205 66v158h148v-160q70 -6 123 -25.5t149 -66.5v-151q-14 8 -76.5 44t-129 52t-144.5 16 q-141 0 -209 -58t-68 -146q0 -80 36 -129.5t96.5 -80t170.5 -67.5q127 -43 208 -85t138.5 -120t57.5 -198q0 -142 -84 -249.5t-268 -131.5v-176h-148v170q-119 6 -194.5 31.5t-186.5 84.5z" />
<glyph unicode="%" horiz-adv-x="1540" d="M94 1010q0 377 291 376q143 0 216 -95t73 -281q0 -187 -73 -282t-216 -95q-291 0 -291 377zM219 1010q0 -158 53.5 -216.5t112.5 -58.5t111.5 58.5t52.5 216.5t-52.5 216t-111.5 58t-112.5 -58.5t-53.5 -215.5zM410 -45l895 1448h137l-426 -690q59 31 141 30 q143 0 216 -95t73 -281t-73 -281.5t-216 -95.5q-291 0 -291 377q0 72 8 118l-327 -530h-137zM991 367q0 -158 53.5 -216.5t112.5 -58.5q60 0 112 58.5t52 216.5t-52 216t-112 58q-59 0 -112.5 -58.5t-53.5 -215.5z" />
<glyph unicode="&#x26;" horiz-adv-x="1310" d="M111 377q0 109 63.5 216t212.5 195q-135 168 -135 283q0 84 42 154.5t112.5 112.5t154.5 42q86 0 158 -40t112.5 -109.5t40.5 -151.5q0 -104 -63.5 -177t-198.5 -150l312 -371q43 78 79 213h134q-14 -74 -45 -159t-78 -163l229 -272h-192l-125 150q-78 -72 -178.5 -119 t-206.5 -47q-145 0 -241.5 63.5t-141.5 154.5t-45 175zM256 381q0 -47 25.5 -105.5t90 -103.5t173.5 -45q82 0 155.5 37t133.5 92l-359 428q-127 -76 -173 -154.5t-46 -148.5zM395 1069q0 -35 44 -102.5t96 -126.5q121 66 160.5 121t39.5 116q0 68 -49 112t-121 44 q-69 0 -119.5 -48t-50.5 -116z" />
<glyph unicode="'" horiz-adv-x="509" d="M166 1384h170l-35 -411h-98z" />
<glyph unicode="(" horiz-adv-x="706" d="M190 625q0 260 71 481t157 377h155q-76 -127 -155.5 -353.5t-79.5 -504.5q0 -279 80 -506.5t155 -349.5h-155q-86 155 -157 375.5t-71 480.5z" />
<glyph unicode=")" horiz-adv-x="706" d="M133 -231q78 129 158 354t80 504q0 276 -81 504.5t-157 351.5h158q86 -156 156.5 -376t70.5 -480t-70.5 -481.5t-156.5 -376.5h-158z" />
<glyph unicode="*" horiz-adv-x="841" d="M172 1112l178 78l-178 80l55 94l156 -111l-21 187h111l-16 -187l153 111l56 -94l-177 -80l177 -78l-56 -98l-153 112l16 -184h-111l21 184l-156 -112z" />
<glyph unicode="+" horiz-adv-x="1128" d="M199 551v123h303v303h123v-303h301v-123h-301v-301h-123v301h-303z" />
<glyph unicode="," horiz-adv-x="641" d="M152 -229l151 401h168l-172 -401h-147z" />
<glyph unicode="-" horiz-adv-x="950" d="M162 539v143h624v-143h-624z" />
<glyph unicode="." horiz-adv-x="532" d="M164 0v205h205v-205h-205z" />
<glyph unicode="/" horiz-adv-x="827" d="M-29 -201l752 1749h135l-754 -1749h-133z" />
<glyph unicode="0" horiz-adv-x="1323" d="M123 678q0 348 135 524t404 176q539 0 538 -700q0 -700 -538 -701q-269 0 -404 176.5t-135 524.5zM270 678q0 -233 56.5 -358t140.5 -166t195 -41q110 0 194 41t140.5 165.5t56.5 358.5q0 233 -56.5 358t-141.5 166t-193 41q-109 0 -194 -41t-141.5 -166t-56.5 -358z" />
<glyph unicode="1" horiz-adv-x="923" d="M211 1032v174l252 160h168v-1366h-148v1212z" />
<glyph unicode="2" horiz-adv-x="1189" d="M158 0v129q147 109 305 255t273.5 312t115.5 303q0 100 -70.5 169t-251.5 69q-190 0 -358 -119v162q172 104 371 104q160 0 262 -55t148 -142t46 -188q0 -190 -184 -417.5t-430 -434.5h635v-147h-862z" />
<glyph unicode="3" horiz-adv-x="1193" d="M166 70v151q160 -90 346 -90q182 0 278.5 67.5t96.5 194.5t-98.5 194.5t-284.5 67.5h-150v142h156q150 0 228.5 56t78.5 163q0 106 -83 163.5t-240 57.5q-152 0 -295 -72v150q147 70 311 69q160 0 261 -52t147.5 -136t46.5 -180q0 -90 -39 -151.5t-88.5 -96.5t-49.5 -29 t69 -38t123 -121.5t54 -190.5q0 -106 -51 -197.5t-163.5 -149.5t-289.5 -58q-196 0 -364 86z" />
<glyph unicode="4" horiz-adv-x="1210" d="M78 410v157l645 799h166v-819h194v-137h-194v-410h-148v410h-663zM242 547h499v608z" />
<glyph unicode="5" horiz-adv-x="1159" d="M178 735l70 631h702v-145h-575l-35 -404q123 35 262 35q182 0 308 -95t126 -339t-126 -339t-308 -95q-236 0 -391 84v153q57 -37 152.5 -65.5t228.5 -28.5q129 0 195.5 43t85 104.5t18.5 143.5q0 172 -81 229.5t-218 57.5q-96 0 -168 -14.5t-113 -31t-41 -18.5z" />
<glyph unicode="6" horiz-adv-x="1193" d="M133 625q0 313 107.5 482t246 223t269.5 54q109 0 198 -26v-137q-102 25 -182 24q-78 0 -180.5 -37t-192.5 -139t-112 -287q160 92 311 92q215 0 340 -115.5t125 -314.5q0 -115 -47 -220t-151.5 -172.5t-266.5 -67.5q-465 0 -465 641zM281 623q4 -203 45 -312.5 t107.5 -148.5t164.5 -39q190 0 253.5 107.5t63.5 215.5q0 139 -81.5 215t-235.5 76q-100 0 -181 -34.5t-136 -79.5z" />
<glyph unicode="7" horiz-adv-x="1175" d="M143 1219v147h932v-137l-592 -1229h-164l590 1219h-766z" />
<glyph unicode="8" horiz-adv-x="1191" d="M125 406q0 113 52 186.5t117.5 112t65.5 32.5t-51 31t-92 101.5t-41 160.5q0 92 43 173t138.5 131t240.5 50q147 0 241.5 -50t137.5 -131t43 -173q0 -98 -40 -162.5t-89 -99.5t-49 -29t63.5 -33.5t114.5 -114.5t51 -185q0 -106 -48 -203t-153.5 -158t-271.5 -61 q-164 0 -270.5 62.5t-154.5 157.5t-48 202zM272 406q0 -94 65.5 -188.5t260.5 -94.5t260.5 93t65.5 190q0 123 -84 188t-242 65t-242 -65.5t-84 -187.5zM324 1030q0 -111 72.5 -173t201.5 -62t201.5 62.5t72.5 172.5q0 119 -78.5 164t-195.5 45t-195.5 -45t-78.5 -164z" />
<glyph unicode="9" horiz-adv-x="1202" d="M133 924q0 115 47 220t151.5 172.5t266.5 67.5q465 0 465 -641q0 -313 -107.5 -482t-246 -223t-269.5 -54q-109 0 -198 26v137q102 -25 182 -24q78 0 180.5 37t192.5 139t112 287q-158 -92 -311 -92q-215 0 -340 115.5t-125 314.5zM281 922q0 -140 81.5 -215.5 t235.5 -75.5q100 0 181 34.5t136 79.5q-4 203 -45 312.5t-107.5 148.5t-164.5 39q-190 0 -253.5 -107.5t-63.5 -215.5z" />
<glyph unicode=":" horiz-adv-x="800" d="M324 98v164h163v-164h-163zM324 754v164h163v-164h-163z" />
<glyph unicode=";" horiz-adv-x="583" d="M82 -229l131 401h188l-172 -401h-147zM215 713v205h205v-205h-205z" />
<glyph unicode="&#x3c;" horiz-adv-x="1351" d="M246 481v140l844 383v-164l-672 -289l672 -291v-162z" />
<glyph unicode="=" horiz-adv-x="1306" d="M260 381v143h789v-143h-789zM260 698v142h789v-142h-789z" />
<glyph unicode="&#x3e;" horiz-adv-x="1329" d="M270 98v162l670 291l-670 289v164l842 -383v-140z" />
<glyph unicode="?" horiz-adv-x="993" d="M164 1145v160q0 2 41 22.5t104.5 37.5t139.5 17q147 0 276 -80.5t129 -297.5q0 -98 -38 -154.5t-111 -120.5q-53 -47 -84 -80t-52.5 -86t-21.5 -129v-90h-148v100q0 100 27 169t63.5 111t96.5 91q63 51 92 89t29 100q0 113 -68 172t-201 59q-88 0 -158.5 -27.5 t-115.5 -62.5zM391 0v164h164v-164h-164z" />
<glyph unicode="@" horiz-adv-x="1869" d="M170 371q0 244 130 441.5t334 309t413 111.5q147 0 302.5 -69.5t264 -219t108.5 -375.5q0 -143 -41 -257.5t-116.5 -180t-175.5 -65.5q-137 0 -191 100q-96 -100 -295 -100q-143 0 -225 62t-82 171q0 115 94 206t350 91q74 0 152 -10q2 14 2 43q0 76 -38 119t-161 43 q-143 0 -256 -43l17 118q123 41 239 41q156 0 237 -70.5t81 -207.5q0 -82 -21 -213q-2 -25 -8 -73t-6 -77q0 -63 26.5 -96t92.5 -33q55 0 112.5 48t96.5 145.5t39 232.5q0 190 -90.5 324.5t-227.5 201t-280 66.5q-203 0 -386.5 -104.5t-297 -284.5t-113.5 -395 q0 -246 112.5 -380t250 -178t241.5 -44q254 0 430 100l-18 -92q-172 -82 -428 -82q-152 0 -305.5 70.5t-258 223t-104.5 382.5zM715 299q0 -115 188 -115q162 0 209 62.5t54.5 132.5t9.5 90q-55 8 -136 8q-326 0 -325 -178z" />
<glyph unicode="A" horiz-adv-x="1316" d="M41 0l545 1366h147l543 -1366h-158l-164 426h-589l-164 -426h-160zM420 567h479l-240 625z" />
<glyph unicode="B" horiz-adv-x="1286" d="M174 0v1366h453q454 0 454 -365q0 -100 -32.5 -150t-69.5 -81t-47 -39q96 -43 163.5 -126t67.5 -218q0 -199 -129 -293t-366 -94h-494zM322 137h358q156 0 246 54.5t90 203.5q0 147 -93.5 193.5t-248.5 46.5h-352v-498zM322 774h337q125 0 200 43t75 172q0 133 -73 184.5 t-220 51.5h-319v-451z" />
<glyph unicode="C" horiz-adv-x="1273" d="M113 684q0 348 158.5 524t473.5 176q209 0 416 -100v-141q-193 102 -399 102q-258 0 -377 -135t-119 -426q0 -293 118 -427t378 -134q217 0 399 100v-141q-209 -98 -416 -98q-315 0 -473.5 176t-158.5 524z" />
<glyph unicode="D" horiz-adv-x="1366" d="M174 0v1366h428q319 0 480 -171t161 -511q0 -684 -641 -684h-428zM322 139h270q260 0 380 131t120 414t-120 414t-380 131h-270v-1090z" />
<glyph unicode="E" horiz-adv-x="1189" d="M174 0v1366h862v-139h-714v-471h628v-144h-628v-473h714v-139h-862z" />
<glyph unicode="F" horiz-adv-x="1103" d="M174 0v1366h838v-139h-690v-471h606v-144h-606v-612h-148z" />
<glyph unicode="G" horiz-adv-x="1406" d="M123 684q0 348 158.5 524t474.5 176q233 0 430 -92v-153q-113 49 -213.5 77.5t-200.5 28.5q-260 0 -381 -136t-121 -425q0 -291 121 -427t381 -136q164 0 313 49v389h-329v143h477v-616q-221 -106 -477 -106q-316 0 -474.5 178t-158.5 526z" />
<glyph unicode="H" horiz-adv-x="1370" d="M174 0v1366h148v-614h727v614h147v-1366h-147v612h-727v-612h-148z" />
<glyph unicode="I" horiz-adv-x="495" d="M174 0v1366h148v-1366h-148z" />
<glyph unicode="J" horiz-adv-x="927" d="M92 55v154q117 -82 252 -82q139 0 200.5 68.5t61.5 224.5v946h148v-958q0 -238 -114 -331t-278 -93h-4q-145 0 -266 71z" />
<glyph unicode="K" horiz-adv-x="1255" d="M174 0v1366h148v-719l647 719h188l-586 -639l633 -727h-205l-530 616l-147 -161v-455h-148z" />
<glyph unicode="L" horiz-adv-x="1071" d="M174 0v1366h148v-1223h698v-143h-846z" />
<glyph unicode="M" horiz-adv-x="1607" d="M174 0v1366h160l463 -711l477 711h160v-1366h-148v1126l-498 -698l-466 694v-1122h-148z" />
<glyph unicode="N" horiz-adv-x="1478" d="M174 0v1366h168l815 -1151v1151h148v-1366h-166l-817 1151v-1151h-148z" />
<glyph unicode="O" horiz-adv-x="1472" d="M123 682q0 348 154.5 525t457.5 177q305 0 460 -177t155 -525t-155 -525t-460 -177q-303 0 -457.5 177t-154.5 525zM274 682q0 -293 111 -428t350 -135q242 0 352.5 135t110.5 428q0 291 -110.5 427t-352.5 136q-240 0 -350.5 -136t-110.5 -427z" />
<glyph unicode="P" horiz-adv-x="1255" d="M174 0v1366h485q229 0 351.5 -108.5t122.5 -313.5t-122 -313.5t-352 -108.5h-337v-522h-148zM322 664h319q205 0 274.5 77.5t69.5 202.5t-69.5 203t-274.5 78h-319v-561z" />
<glyph unicode="Q" horiz-adv-x="1472" d="M123 682q0 348 154.5 525t457.5 177q305 0 460 -177t155 -525q0 -463 -271 -623q37 -61 73 -88.5t75 -27.5q29 0 54.5 8t66.5 33v-131q-70 -37 -138 -37q-84 0 -152.5 50t-117.5 138q-88 -24 -196 -24h-9q-303 0 -457.5 177t-154.5 525zM274 682q0 -172 37 -287.5 t115 -183.5v102q53 41 109.5 68t136.5 27q195 0 334 -222q100 61 146 182t46 314q0 291 -110.5 427t-352.5 136q-240 0 -350.5 -136t-110.5 -427zM451 193q108 -74 284 -74q84 4 135 16q-41 70 -91 109t-124 39q-63 0 -111 -23.5t-93 -66.5z" />
<glyph unicode="R" horiz-adv-x="1292" d="M174 0v1366h561q199 0 301.5 -100.5t102.5 -296.5q0 -158 -84 -266.5t-226 -135.5l371 -567h-174l-356 551h-348v-551h-148zM322 690h346q168 0 245.5 67.5t77.5 200.5q0 131 -61.5 200t-210.5 69h-397v-537z" />
<glyph unicode="S" horiz-adv-x="1136" d="M133 96v160q74 -61 185.5 -101t248.5 -40q150 0 223.5 63.5t73.5 171.5q0 80 -43 132.5t-102.5 82t-177.5 74.5q-127 43 -202 82t-128 114.5t-53 200.5q0 84 42 164t135 133t240 53q109 0 177.5 -20t181.5 -76v-151q-14 8 -76.5 44t-129 52t-144.5 16q-141 0 -209 -58 t-68 -146q0 -80 36 -129.5t96.5 -80t170.5 -67.5q127 -43 208 -85t138.5 -120t57.5 -198q0 -162 -107.5 -274.5t-345.5 -112.5q-141 0 -225 26.5t-203 89.5z" />
<glyph unicode="T" horiz-adv-x="1193" d="M41 1227v139h1112v-139h-481v-1227h-148v1227h-483z" />
<glyph unicode="U" horiz-adv-x="1417" d="M174 557v809h148v-817q0 -430 387 -430q391 0 391 430v817h143v-809q0 -279 -140 -428t-394 -149t-394.5 149.5t-140.5 427.5z" />
<glyph unicode="V" horiz-adv-x="1275" d="M41 1366h158l446 -1171l438 1167l152 4l-524 -1366h-146z" />
<glyph unicode="W" horiz-adv-x="1998" d="M51 1366h156l368 -1165l351 1165h147l357 -1165l362 1165h156l-441 -1366h-149l-359 1133l-358 -1133h-152z" />
<glyph unicode="X" horiz-adv-x="1206" d="M25 0l485 692l-473 674h176l387 -549l385 549h180l-475 -678l484 -688h-177l-397 563l-395 -563h-180z" />
<glyph unicode="Y" horiz-adv-x="1224" d="M25 1366h178l403 -598l406 598h178l-508 -739v-627h-147v627z" />
<glyph unicode="Z" horiz-adv-x="1247" d="M131 0v129l799 1098h-778v139h952v-125l-791 -1102h791v-139h-973z" />
<glyph unicode="[" horiz-adv-x="784" d="M244 -238v1663h370v-139h-223v-1384h223v-140h-370z" />
<glyph unicode="\" horiz-adv-x="753" d="M-76 1548h135l752 -1749h-133z" />
<glyph unicode="]" horiz-adv-x="780" d="M172 -98h221v1384h-221v139h369v-1663h-369v140z" />
<glyph unicode="^" horiz-adv-x="1146" d="M274 969l213 444h113l213 -444h-123l-145 325l-148 -325h-123z" />
<glyph unicode="_" horiz-adv-x="1118" d="M0 -49h1118v-90h-1118v90z" />
<glyph unicode="`" horiz-adv-x="448" d="M94 1391h150l116 -236h-96z" />
<glyph unicode="a" horiz-adv-x="1134" d="M123 281q0 182 100.5 265t276.5 83q199 0 321 -72v121q0 229 -268 229q-88 0 -178 -24.5t-152 -73.5v147q61 39 167 61.5t210 22.5q172 0 271.5 -84t99.5 -243v-496q0 -147 -121 -197.5t-334 -50.5q-162 0 -277.5 72t-115.5 240zM270 303q0 -106 82 -154.5t199 -48.5 q143 0 206.5 21.5t63.5 87.5v229q-55 27 -129 42.5t-153 15.5q-129 0 -199 -49.5t-70 -143.5z" />
<glyph unicode="b" d="M164 174v1280h147v-475q63 25 142 42t133 17q231 0 349 -136t118 -378q-2 -311 -143.5 -433t-336.5 -122q-410 0 -409 205zM311 209q0 -59 72 -82t170 -23q199 0 271.5 113t72.5 307q0 176 -76 277.5t-235 101.5q-68 0 -140.5 -18.5t-134.5 -53.5v-622z" />
<glyph unicode="c" horiz-adv-x="1007" d="M113 512q0 295 138 411.5t341 116.5q154 0 303 -57v-141q-139 57 -287 57q-182 0 -265 -92t-83 -295q0 -205 83 -296t265 -91q154 0 287 57v-143q-143 -55 -303 -55q-203 0 -341 115.5t-138 412.5z" />
<glyph unicode="d" d="M113 524q0 242 117.5 378t349.5 136q53 0 132 -17t142 -42v475h147v-1278q0 -104 -132 -155.5t-287 -51.5q-188 0 -327.5 122t-141.5 433zM268 524q0 -193 70 -306.5t252 -113.5q109 0 186.5 25t77.5 61v641q-61 35 -134 53.5t-140 18.5q-160 0 -236 -101.5t-76 -277.5z " />
<glyph unicode="e" horiz-adv-x="1120" d="M113 512q0 260 117.5 394t330.5 134q235 0 343 -152q105 -146 104 -385v-18h-746q0 -184 86 -282.5t246 -98.5q205 0 350 89v-152q-150 -72 -358 -72q-223 0 -348 138.5t-125 404.5zM268 621h584q-10 143 -81 213.5t-210 70.5q-135 0 -204.5 -62.5t-88.5 -221.5z" />
<glyph unicode="f" horiz-adv-x="768" d="M82 887v135h176v55q0 170 59.5 253t128 102.5t142.5 19.5q55 0 98 -12v-131q-41 8 -74 8q-66 0 -106.5 -12.5t-70 -63.5t-29.5 -162v-57h280v-135h-280v-887h-148v887h-176z" />
<glyph unicode="g" d="M113 483q2 313 145 434t352 121q164 0 277.5 -62.5t113.5 -191.5v-827q0 -152 -98 -257.5t-346 -105.5q-70 0 -130 11.5t-104 23t-57 13.5v139q80 -23 140.5 -35t134.5 -12q186 0 249.5 61.5t63.5 157.5v76q-63 -25 -142 -42.5t-132 -17.5q-231 0 -349 136.5t-118 377.5z M268 483q0 -176 76 -277.5t236 -101.5q68 0 140.5 18.5t133.5 53.5v588q0 80 -62.5 109.5t-168.5 29.5q-205 0 -280 -112.5t-75 -307.5z" />
<glyph unicode="h" horiz-adv-x="1177" d="M164 0v1475h147v-521q76 41 157 63.5t153 22.5q192 0 292.5 -107.5t100.5 -326.5v-606h-148v606q0 143 -66.5 221t-195.5 78q-143 0 -293 -82v-823h-147z" />
<glyph unicode="i" horiz-adv-x="491" d="M164 1204v162h164v-162h-164zM172 0v1022h147v-1022h-147z" />
<glyph unicode="j" horiz-adv-x="548" d="M20 -258q86 2 131.5 25.5t61.5 66.5t16 115v1073h148v-1081q0 -170 -88 -253t-269 -83v137zM221 1204v162h164v-162h-164z" />
<glyph unicode="k" horiz-adv-x="1046" d="M164 0v1411h147v-768l416 379h184l-501 -442l575 -580h-197l-477 483v-483h-147z" />
<glyph unicode="l" horiz-adv-x="475" d="M164 0v1411h147v-1411h-147z" />
<glyph unicode="m" horiz-adv-x="1808" d="M164 0v940q199 100 432 100q199 0 299 -84q154 84 344 84q215 0 310.5 -94t95.5 -280v-666h-148v666q0 241 -272 241h-2q-131 0 -248 -69q26 -69 26 -165v-7v-666h-147v666q0 241 -272 241h-2q-127 0 -269 -41v-866h-147z" />
<glyph unicode="n" d="M164 0v940q199 100 432 100q215 0 310 -94t95 -280v-666h-147v666q0 241 -272 241h-2q-127 0 -269 -41v-866h-147z" />
<glyph unicode="o" d="M113 508q0 264 119.5 398t347.5 134q240 0 356.5 -142t116.5 -390q0 -254 -123 -396.5t-346 -142.5q-236 0 -353.5 139.5t-117.5 399.5zM260 508q0 -403 322 -404q323 1 323 404q0 193 -75.5 295t-247.5 102q-322 0 -322 -397z" />
<glyph unicode="p" d="M164 -444v1282q0 113 124 156.5t290 45.5q204 0 339.5 -132t135.5 -423q0 -240 -127 -377t-361 -137q-53 0 -122.5 16.5t-131.5 43.5v-475h-147zM311 178q123 -72 254 -72q162 0 247 102.5t85 276.5q0 193 -69.5 306.5t-252.5 113.5q-111 0 -187.5 -25.5t-76.5 -68.5 v-633z" />
<glyph unicode="q" d="M113 485q2 313 147.5 434t364.5 121q166 0 271 -55t105 -188v-1241h-147v475q-61 -27 -131 -43.5t-123 -16.5q-233 0 -360 137.5t-127 376.5zM268 485q0 -174 85 -276.5t247 -102.5q131 0 254 72v619q0 53 -73.5 80.5t-162.5 27.5q-203 0 -276.5 -112.5t-73.5 -307.5z " />
<glyph unicode="r" horiz-adv-x="772" d="M164 0v940q78 33 206 66.5t265 33.5q20 0 65 -12v-131q-49 6 -98 6q-68 0 -125 -8t-166 -27v-868h-147z" />
<glyph unicode="s" horiz-adv-x="933" d="M113 55v156q104 -59 170.5 -83t158.5 -24q102 0 167 45.5t65 116.5q0 63 -39 95t-123 65l-53 23q-117 33 -181.5 59.5t-112.5 83.5t-48 156q0 98 51 163.5t133 97t172 31.5q82 0 138.5 -18t154.5 -61v-148q-102 51 -156.5 71.5t-128.5 20.5q-90 0 -153.5 -35.5 t-63.5 -101.5q0 -53 32 -87t80 -53.5t130 -41.5q102 -33 162.5 -59.5t106.5 -85t46 -156.5q0 -104 -53 -175t-138 -106t-177 -35q-105 0 -178.5 20.5t-161.5 65.5z" />
<glyph unicode="t" horiz-adv-x="743" d="M51 887v135h178v289h148v-289h264v-135h-264v-592q0 -90 28.5 -131t106.5 -41q76 0 129 24v-139q-29 -10 -73 -17t-83 -7q-112 0 -184 68.5t-72 195.5v639h-178z" />
<glyph unicode="u" horiz-adv-x="1183" d="M164 375v647h147v-614q0 -156 67.5 -229t213.5 -73q143 0 211.5 73t68.5 229v614h148v-647q0 -195 -111.5 -300.5t-316.5 -105.5t-316.5 105.5t-111.5 300.5z" />
<glyph unicode="v" horiz-adv-x="1159" d="M72 1022h157l363 -860l348 860h147l-434 -1022h-149z" />
<glyph unicode="w" horiz-adv-x="1630" d="M72 1022h155l267 -854l249 854h142l258 -856l270 856h146l-340 -1022h-150l-256 848l-252 -848h-149z" />
<glyph unicode="x" horiz-adv-x="1089" d="M72 0l381 514l-371 508h186l285 -387l291 387h170l-375 -506l379 -516h-189l-290 399l-301 -399h-166z" />
<glyph unicode="y" horiz-adv-x="1105" d="M72 1022h168l323 -834l324 834h147l-438 -1122q-63 -164 -148.5 -229.5t-173.5 -65.5q-49 0 -96 18v135q41 -18 88 -18q88 0 137.5 63.5t92.5 192.5z" />
<glyph unicode="z" horiz-adv-x="931" d="M92 0v133l572 762h-558v127h734v-129l-578 -762h578v-131h-748z" />
<glyph unicode="{" horiz-adv-x="763" d="M186 551v100q53 14 91 49t38 99v319q0 150 79 229.5t229 79.5h16v-139h-16q-82 -4 -121 -36.5t-39 -123.5v-329q0 -119 -119 -199q119 -80 119 -199v-329q0 -88 39 -122t121 -38h16v-137h-16q-150 0 -229 78.5t-79 228.5v319q0 111 -129 150z" />
<glyph unicode="|" horiz-adv-x="907" d="M379 -203v1565h147v-1565h-147z" />
<glyph unicode="}" horiz-adv-x="753" d="M143 -88h13q82 4 120.5 38t38.5 122v329q0 117 121 199q-121 82 -121 199v329q0 90 -37.5 123t-121.5 37h-13v139h13q150 0 228.5 -79.5t78.5 -229.5v-319q0 -63 38 -98t91 -50v-100q-129 -39 -129 -150v-319q0 -150 -79 -228.5t-228 -78.5h-13v137z" />
<glyph unicode="~" horiz-adv-x="1024" d="M201 473v125q63 80 141 80q37 0 77 -15.5t91 -44.5q61 -31 98 -45t74 -14q78 0 141 80v-123q-63 -80 -141 -80q-37 0 -74 14.5t-98 45.5q-55 29 -92 43t-74 14q-80 0 -143 -80z" />
<glyph unicode="&#xa1;" horiz-adv-x="741" d="M303 860v162h164v-162h-164zM311 -344l15 1022h118l15 -1022h-148z" />
<glyph unicode="&#xa2;" horiz-adv-x="1007" d="M113 637q0 260 109.5 381t279.5 141v127h147v-123q129 -10 246 -55v-141q-139 57 -287 57q-182 0 -265 -92t-83 -295q0 -205 83 -296t265 -91q154 0 287 57v-143q-111 -43 -246 -53v-111h-147v115q-170 23 -279.5 142.5t-109.5 379.5z" />
<glyph unicode="&#xa3;" horiz-adv-x="1136" d="M104 -31v150q80 39 177 45v411h-177v136h177v293q0 100 44 186t141 140t249 54q162 0 309 -79v-150q-139 88 -297 88q-168 0 -233.5 -67.5t-65.5 -165.5v-299h412v-136h-412v-415q31 -4 156 -29q63 -12 132.5 -23.5t127.5 -11.5q98 0 180 31v-150q-82 -31 -180 -30 q-51 0 -112.5 9t-97.5 16.5t-48 9.5q-90 18 -146.5 27t-115.5 9q-115 0 -220 -49z" />
<glyph unicode="&#xa4;" horiz-adv-x="1011" d="M102 381l99 100q-66 98 -66 213q0 113 66 211l-99 99l93 92l98 -97q100 70 217 70q115 0 213 -65l94 92l92 -92l-92 -95q68 -96 68 -215q0 -117 -70 -217l94 -96l-92 -92l-96 96q-98 -66 -211 -66q-119 0 -215 68l-100 -98zM283 694q0 -108 64.5 -175.5t162.5 -67.5 q96 0 160.5 67.5t64.5 175.5q0 109 -64.5 176.5t-160.5 67.5q-98 0 -162.5 -67.5t-64.5 -176.5z" />
<glyph unicode="&#xa5;" horiz-adv-x="1232" d="M37 1366h180l404 -588l403 588h180l-444 -645h256v-123h-322v-192h322v-123h-322v-283h-147v283h-322v123h322v192h-322v123h256z" />
<glyph unicode="&#xa6;" horiz-adv-x="907" d="M379 -203v652h147v-652h-147zM379 711v651h147v-651h-147z" />
<glyph unicode="&#xa7;" horiz-adv-x="1112" d="M119 727q0 164 186 223q-82 51 -82 144q0 76 41 141t133 107t236 42q156 0 297 -61v-145q-131 70 -285 69q-104 0 -189 -28.5t-85 -102.5q0 -29 13 -53.5t68.5 -53t174.5 -55.5q115 -27 194.5 -60.5t133 -98t53.5 -166.5q0 -76 -51.5 -130.5t-125.5 -78.5q72 -59 72 -158 q0 -131 -111.5 -204.5t-310.5 -73.5q-203 -1 -350 73v152q135 -84 340 -84q104 0 194.5 27.5t90.5 109.5q0 41 -16.5 69.5t-75 57.5t-175.5 55q-121 29 -198.5 58.5t-124.5 84t-47 140.5zM266 727q0 -25 13.5 -44t70 -44t174.5 -51q135 -29 219 -74q117 35 117 115 q0 41 -17.5 69.5t-74.5 57t-174 55.5q-98 23 -176 49q-152 -29 -152 -133z" />
<glyph unicode="&#xa8;" horiz-adv-x="788" d="M162 1155v162h162v-162h-162zM465 1155v162h162v-162h-162z" />
<glyph unicode="&#xa9;" horiz-adv-x="1593" d="M98 682q0 190 94.5 351t255 255t351.5 94q190 0 351 -94t255 -255t94 -351q0 -188 -94 -349t-255 -255t-351 -94q-189 0 -350.5 94t-256 255t-94.5 349zM172 682q0 -170 85 -313.5t228.5 -228.5t313.5 -85t314 85t228 228.5t84 313.5t-84 314.5t-228 229.5t-314 85 t-313.5 -85t-228.5 -229.5t-85 -314.5zM449 682q0 410 368 410q129 0 244 -45v-82q-109 45 -234 45q-152 0 -222 -79t-70 -249t70.5 -249t221.5 -79q121 0 234 47v-82q-115 -45 -244 -45q-368 0 -368 408z" />
<glyph unicode="&#xaa;" horiz-adv-x="806" d="M156 979q0 102 62.5 144t174.5 42q53 0 96 -8t56 -12q0 158 -160 158q-84 0 -172 -35v80q88 35 176 34q238 0 238 -235v-172q0 -102 -75 -140t-159 -38q-86 0 -161.5 38.5t-75.5 143.5zM238 981q0 -109 155 -109q152 1 152 105v94q-12 4 -54 12.5t-81 8.5 q-74 0 -123 -21.5t-49 -89.5z" />
<glyph unicode="&#xab;" horiz-adv-x="1132" d="M63 522l347 389h198l-364 -389l364 -391h-198zM453 522l346 389h198l-364 -389l364 -391h-198z" />
<glyph unicode="&#xac;" horiz-adv-x="1273" d="M199 528v136h876v-340h-135v204h-741z" />
<glyph unicode="&#xad;" horiz-adv-x="1228" d="M162 539v143h624v-143h-624z" />
<glyph unicode="&#xae;" horiz-adv-x="1593" d="M98 682q0 190 94.5 351t255 255t351.5 94q190 0 351 -94t255 -255t94 -351q0 -188 -94 -349t-255 -255t-351 -94q-189 0 -350.5 94t-256 255t-94.5 349zM172 682q0 -170 85 -313.5t228.5 -228.5t313.5 -85t314 85t228 228.5t84 313.5t-84 314.5t-228 229.5t-314 85 t-313.5 -85t-228.5 -229.5t-85 -314.5zM545 283v798h293q131 0 201.5 -58t70.5 -173q0 -119 -61.5 -168t-122.5 -64l219 -335h-103l-206 323h-205v-323h-86zM631 688h203q113 0 150.5 43t37.5 113t-38 112.5t-150 42.5h-203v-311z" />
<glyph unicode="&#xaf;" horiz-adv-x="825" d="M176 1180v108h479v-108h-479z" />
<glyph unicode="&#xb0;" horiz-adv-x="792" d="M168 1143q0 111 56.5 169t166.5 58q109 0 166 -58.5t57 -168.5q0 -113 -57 -170.5t-166 -57.5q-110 0 -166.5 57.5t-56.5 170.5zM242 1143q0 -82 34.5 -118t114.5 -36q78 0 114 36t36 118q0 80 -36 116.5t-114 36.5q-80 0 -114.5 -36.5t-34.5 -116.5z" />
<glyph unicode="&#xb1;" horiz-adv-x="1198" d="M231 68v122h727v-122h-727zM231 598v123h304v301h122v-301h301v-123h-301v-303h-122v303h-304z" />
<glyph unicode="&#xb2;" horiz-adv-x="671" d="M109 948v70q115 86 213 211t98 233q0 45 -37 75t-96 30q-45 0 -91 -18.5t-79 -43.5v131q90 55 198 55q125 0 185.5 -60t60.5 -144q0 -100 -72.5 -211t-181.5 -207h264v-121h-462z" />
<glyph unicode="&#xb3;" horiz-adv-x="661" d="M109 985v127q90 -49 186 -49q61 0 102 27.5t41 86.5q0 51 -43 77t-104 26h-80v117h84q43 0 73.5 22.5t30.5 75.5q0 31 -31.5 51.5t-82.5 20.5q-84 0 -158 -39v127q82 37 168 36q125 0 184.5 -58t59.5 -138q0 -49 -20.5 -82t-47.5 -51.5t-27 -16.5q8 -6 45 -25.5 t61.5 -60.5t24.5 -102q0 -90 -66.5 -153.5t-203.5 -63.5q-102 0 -196 45z" />
<glyph unicode="&#xb4;" horiz-adv-x="483" d="M123 1155l117 236h151l-170 -236h-98z" />
<glyph unicode="&#xb5;" horiz-adv-x="1247" d="M203 -430v1452h147v-664q0 -98 54.5 -162.5t218.5 -64.5q135 0 268 39v852h147v-938q-63 -33 -178 -66.5t-252 -33.5q-70 0 -127 18t-94 39.5t-37 24.5v-496h-147z" />
<glyph unicode="&#xb6;" horiz-adv-x="911" d="M78 946q0 203 120.5 311.5t350.5 108.5h203v-1366h-136v524h-67q-229 0 -350 108.5t-121 313.5z" />
<glyph unicode="&#xb7;" horiz-adv-x="636" d="M238 475v164h161v-164h-161z" />
<glyph unicode="&#xb8;" horiz-adv-x="518" d="M115 -246l168 236h116l-129 -236h-155z" />
<glyph unicode="&#xb9;" horiz-adv-x="479" d="M109 1442v155l135 86h90v-735h-139v549z" />
<glyph unicode="&#xba;" horiz-adv-x="854" d="M156 1090q0 166 76.5 230t189.5 64t189.5 -64.5t76.5 -229.5q0 -164 -76.5 -228.5t-189.5 -64.5t-189.5 64.5t-76.5 228.5zM238 1090q0 -115 44 -166.5t140 -51.5q98 0 141 51.5t43 166.5t-43 167t-141 52q-96 0 -140 -52.5t-44 -166.5z" />
<glyph unicode="&#xbb;" horiz-adv-x="1132" d="M137 131l363 391l-363 389h197l348 -389l-348 -391h-197zM526 131l363 391l-363 389h197l348 -389l-348 -391h-197z" />
<glyph unicode="&#xbc;" horiz-adv-x="1513" d="M109 1139v155l135 86h90v-735h-139v549zM137 -45l895 1448h137l-895 -1448h-137zM870 182v125l349 430h88v-440h104v-115h-104v-180h-142v180h-295zM999 297h166v201z" />
<glyph unicode="&#xbd;" horiz-adv-x="1402" d="M109 1139v155l135 86h90v-735h-139v549zM123 -45l895 1448h137l-895 -1448h-137zM838 2v70q115 86 213 211t98 233q0 45 -37 75t-96 30q-45 0 -91 -18.5t-79 -43.5v131q90 55 198 55q125 0 185.5 -60t60.5 -144q0 -100 -72.5 -211t-181.5 -207h264v-121h-462z" />
<glyph unicode="&#xbe;" horiz-adv-x="1538" d="M109 682v127q90 -49 186 -49q61 0 102 27.5t41 86.5q0 51 -43 77t-104 26h-80v117h84q43 0 73.5 22.5t30.5 75.5q0 31 -31.5 51.5t-82.5 20.5q-84 0 -158 -39v127q82 37 168 37q125 0 184.5 -58.5t59.5 -138.5q0 -49 -20.5 -82t-47.5 -51.5t-27 -16.5q8 -6 45 -25.5 t61.5 -60.5t24.5 -102q0 -90 -66.5 -153.5t-203.5 -63.5q-102 0 -196 45zM287 -45l895 1448h137l-895 -1448h-137zM895 182v125l349 430h88v-440h104v-115h-104v-180h-142v180h-295zM1024 297h166v201z" />
<glyph unicode="&#xbf;" horiz-adv-x="989" d="M147 20q0 96 38 152.5t112 120.5q51 43 83 78t53.5 88t21.5 129v92h147v-102q0 -100 -26.5 -169t-63.5 -111t-96 -91q-61 -47 -91 -87t-30 -100q0 -113 68.5 -173t201.5 -60q141 0 275 90v-160q0 -2 -41 -22.5t-105.5 -37.5t-140.5 -17q-147 0 -276.5 81.5t-129.5 298.5z M446 860v162h164v-162h-164z" />
<glyph unicode="&#xc0;" horiz-adv-x="1316" d="M41 0l545 1366h147l543 -1366h-158l-164 426h-589l-164 -426h-160zM420 567h479l-240 625zM452 1712h152l117 -236h-99z" />
<glyph unicode="&#xc1;" horiz-adv-x="1316" d="M41 0l545 1366h147l543 -1366h-158l-164 426h-589l-164 -426h-160zM420 567h479l-240 625zM625 1499l116 236h152l-170 -236h-98z" />
<glyph unicode="&#xc2;" horiz-adv-x="1316" d="M41 0l545 1366h147l543 -1366h-158l-164 426h-589l-164 -426h-160zM420 567h479l-240 625zM434 1473l166 245h125l164 -245h-94l-134 143l-133 -143h-94z" />
<glyph unicode="&#xc3;" horiz-adv-x="1316" d="M41 0l545 1366h147l543 -1366h-158l-164 426h-589l-164 -426h-160zM375 1550q0 76 48 122t109 46q49 0 87 -19.5t90 -56.5q33 -27 55 -40t47 -13t39 16.5t14 47.5q0 10 -4 35h107q4 -29 4 -43q0 -76 -48.5 -123t-127.5 -47q-45 0 -84 20.5t-84 54.5q-33 27 -54.5 39.5 t-42.5 12.5q-25 0 -41 -19.5t-16 -56.5q0 -8 4 -37h-94q-8 31 -8 61zM420 567h479l-240 625z" />
<glyph unicode="&#xc4;" horiz-adv-x="1316" d="M41 0l545 1366h147l543 -1366h-158l-164 426h-589l-164 -426h-160zM420 567h479l-240 625zM428 1487v162h162v-162h-162zM731 1487v162h162v-162h-162z" />
<glyph unicode="&#xc5;" horiz-adv-x="1316" d="M41 0l526 1321q-59 16 -85.5 59t-26.5 119q0 98 48 143.5t159 45.5q109 0 157.5 -45.5t48.5 -143.5q0 -76 -27.5 -120t-88.5 -58l524 -1321h-158l-164 426h-589l-164 -426h-160zM420 567h479l-240 625zM549 1499q0 -55 23.5 -77.5t89.5 -22.5q63 0 86.5 22.5t23.5 77.5 t-23.5 76.5t-86.5 21.5q-66 0 -89.5 -21.5t-23.5 -76.5z" />
<glyph unicode="&#xc6;" horiz-adv-x="1959" d="M41 0l934 1366h831v-141h-690v-471h606v-144h-606v-469h690v-141h-837v428h-467l-291 -428h-170zM600 575h369v543z" />
<glyph unicode="&#xc7;" horiz-adv-x="1273" d="M113 684q0 348 158.5 524t473.5 176q209 0 416 -100v-141q-193 102 -399 102q-258 0 -377 -135t-119 -426q0 -293 118 -427t378 -134q217 0 399 100v-141q-199 -92 -391 -98l-115 -209h-155l151 213q-268 25 -403 199.5t-135 496.5z" />
<glyph unicode="&#xc8;" horiz-adv-x="1189" d="M174 0v1366h862v-139h-714v-471h628v-144h-628v-473h714v-139h-862zM419 1712h152l117 -236h-99z" />
<glyph unicode="&#xc9;" horiz-adv-x="1189" d="M174 0v1366h862v-139h-714v-471h628v-144h-628v-473h714v-139h-862zM592 1499l116 236h152l-170 -236h-98z" />
<glyph unicode="&#xca;" horiz-adv-x="1189" d="M174 0v1366h862v-139h-714v-471h628v-144h-628v-473h714v-139h-862zM401 1473l166 245h125l164 -245h-94l-134 143l-133 -143h-94z" />
<glyph unicode="&#xcb;" horiz-adv-x="1189" d="M174 0v1366h862v-139h-714v-471h628v-144h-628v-473h714v-139h-862zM395 1487v162h162v-162h-162zM698 1487v162h162v-162h-162z" />
<glyph unicode="&#xcc;" horiz-adv-x="495" d="M39 1712h152l117 -236h-99zM174 0v1366h148v-1366h-148z" />
<glyph unicode="&#xcd;" horiz-adv-x="495" d="M174 0v1366h148v-1366h-148zM211 1499l116 236h152l-170 -236h-98z" />
<glyph unicode="&#xce;" horiz-adv-x="495" d="M20 1473l166 245h125l164 -245h-94l-134 143l-133 -143h-94zM174 0v1366h148v-1366h-148z" />
<glyph unicode="&#xcf;" horiz-adv-x="495" d="M14 1487v162h162v-162h-162zM174 0v1366h148v-1366h-148zM317 1487v162h162v-162h-162z" />
<glyph unicode="&#xd0;" horiz-adv-x="1366" d="M14 629v108h160v629h428q320 0 480.5 -171t160.5 -511q0 -684 -641 -684h-428v629h-160zM322 139h270q260 0 380 131t120 414t-120 414t-380 131h-270v-492h192v-108h-192v-490z" />
<glyph unicode="&#xd1;" horiz-adv-x="1478" d="M174 0v1366h168l815 -1151v1151h148v-1366h-166l-817 1151v-1151h-148zM455 1550q0 76 48 122t109 46q49 0 87 -19.5t90 -56.5q33 -27 55 -40t47 -13t39 16.5t14 47.5q0 10 -4 35h107q4 -29 4 -43q0 -76 -48.5 -123t-127.5 -47q-45 0 -84 20.5t-84 54.5 q-33 27 -54.5 39.5t-42.5 12.5q-25 0 -41 -19.5t-16 -56.5q0 -8 4 -37h-94q-8 31 -8 61z" />
<glyph unicode="&#xd2;" horiz-adv-x="1472" d="M123 682q0 348 154.5 525t457.5 177q305 0 460 -177t155 -525t-155 -525t-460 -177q-303 0 -457.5 177t-154.5 525zM274 682q0 -293 111 -428t350 -135q242 0 352.5 135t110.5 428q0 291 -110.5 427t-352.5 136q-240 0 -350.5 -136t-110.5 -427zM542 1712h152l117 -236 h-99z" />
<glyph unicode="&#xd3;" horiz-adv-x="1472" d="M123 682q0 348 154.5 525t457.5 177q305 0 460 -177t155 -525t-155 -525t-460 -177q-303 0 -457.5 177t-154.5 525zM274 682q0 -293 111 -428t350 -135q242 0 352.5 135t110.5 428q0 291 -110.5 427t-352.5 136q-240 0 -350.5 -136t-110.5 -427zM715 1499l116 236h152 l-170 -236h-98z" />
<glyph unicode="&#xd4;" horiz-adv-x="1472" d="M123 682q0 348 154.5 525t457.5 177q305 0 460 -177t155 -525t-155 -525t-460 -177q-303 0 -457.5 177t-154.5 525zM274 682q0 -293 111 -428t350 -135q242 0 352.5 135t110.5 428q0 291 -110.5 427t-352.5 136q-240 0 -350.5 -136t-110.5 -427zM524 1473l166 245h125 l164 -245h-94l-134 143l-133 -143h-94z" />
<glyph unicode="&#xd5;" horiz-adv-x="1472" d="M123 682q0 348 154.5 525t457.5 177q305 0 460 -177t155 -525t-155 -525t-460 -177q-303 0 -457.5 177t-154.5 525zM274 682q0 -293 111 -428t350 -135q242 0 352.5 135t110.5 428q0 291 -110.5 427t-352.5 136q-240 0 -350.5 -136t-110.5 -427zM465 1550q0 76 48 122 t109 46q49 0 87 -19.5t90 -56.5q33 -27 55 -40t47 -13t39 16.5t14 47.5q0 10 -4 35h107q4 -29 4 -43q0 -76 -48.5 -123t-127.5 -47q-45 0 -84 20.5t-84 54.5q-33 27 -54.5 39.5t-42.5 12.5q-25 0 -41 -19.5t-16 -56.5q0 -8 4 -37h-94q-8 31 -8 61z" />
<glyph unicode="&#xd6;" horiz-adv-x="1472" d="M123 682q0 348 154.5 525t457.5 177q305 0 460 -177t155 -525t-155 -525t-460 -177q-303 0 -457.5 177t-154.5 525zM274 682q0 -293 111 -428t350 -135q242 0 352.5 135t110.5 428q0 291 -110.5 427t-352.5 136q-240 0 -350.5 -136t-110.5 -427zM518 1487v162h162v-162 h-162zM821 1487v162h162v-162h-162z" />
<glyph unicode="&#xd7;" horiz-adv-x="985" d="M158 160l272 364l-272 365h131l207 -277l209 277h131l-273 -365l273 -364h-131l-209 276l-207 -276h-131z" />
<glyph unicode="&#xd8;" horiz-adv-x="1472" d="M117 0l145 174q-139 176 -139 508q0 348 154.5 525t457.5 177q276 0 428 -143l105 125h135l-172 -205q119 -170 119 -479q0 -348 -155 -525t-460 -177q-250 0 -401 120l-84 -100h-133zM274 682q0 -260 86 -393l709 841q-113 115 -334 115q-240 0 -350.5 -136t-110.5 -427 zM428 211q106 -92 307 -92q242 0 352.5 135t110.5 428q0 229 -68 360z" />
<glyph unicode="&#xd9;" horiz-adv-x="1417" d="M174 557v809h148v-817q0 -430 387 -430q391 0 391 430v817h143v-809q0 -279 -140 -428t-394 -149t-394.5 149.5t-140.5 427.5zM499 1712h152l117 -236h-99z" />
<glyph unicode="&#xda;" horiz-adv-x="1417" d="M174 557v809h148v-817q0 -430 387 -430q391 0 391 430v817h143v-809q0 -279 -140 -428t-394 -149t-394.5 149.5t-140.5 427.5zM672 1499l116 236h152l-170 -236h-98z" />
<glyph unicode="&#xdb;" horiz-adv-x="1417" d="M174 557v809h148v-817q0 -430 387 -430q391 0 391 430v817h143v-809q0 -279 -140 -428t-394 -149t-394.5 149.5t-140.5 427.5zM481 1473l166 245h125l164 -245h-94l-134 143l-133 -143h-94z" />
<glyph unicode="&#xdc;" horiz-adv-x="1417" d="M174 557v809h148v-817q0 -430 387 -430q391 0 391 430v817h143v-809q0 -279 -140 -428t-394 -149t-394.5 149.5t-140.5 427.5zM475 1487v162h162v-162h-162zM778 1487v162h162v-162h-162z" />
<glyph unicode="&#xdd;" horiz-adv-x="1224" d="M25 1366h178l403 -598l406 598h178l-508 -739v-627h-147v627zM588 1499l116 236h152l-170 -236h-98z" />
<glyph unicode="&#xde;" horiz-adv-x="1167" d="M176 0v1366h148v-207h266q227 0 349 -109.5t122 -314.5t-122 -313.5t-349 -108.5h-266v-313h-148zM324 455h245q205 0 274.5 77.5t69.5 202.5t-69.5 203t-274.5 78h-245v-561z" />
<glyph unicode="&#xdf;" horiz-adv-x="1198" d="M164 0v866q0 231 102.5 374.5t319.5 143.5q190 0 311 -85t121 -236q0 -119 -55.5 -199t-135.5 -106q57 -18 117 -72.5t100.5 -139.5t40.5 -192q0 -104 -45 -191t-136 -138.5t-222 -51.5q-70 0 -172 27v145q98 -37 178 -36q119 0 182.5 65.5t63.5 187.5q0 92 -48 163 t-125 109t-157 38v129q133 0 197.5 65.5t64.5 177.5q0 106 -77.5 157.5t-198.5 51.5q-279 0 -279 -372v-881h-147z" />
<glyph unicode="&#xe0;" horiz-adv-x="1134" d="M123 281q0 182 100.5 265t276.5 83q199 0 321 -72v121q0 229 -268 229q-88 0 -178 -24.5t-152 -73.5v147q61 39 167 61.5t210 22.5q172 0 271.5 -84t99.5 -243v-496q0 -147 -121 -197.5t-334 -50.5q-162 0 -277.5 72t-115.5 240zM270 303q0 -106 82 -154.5t199 -48.5 q143 0 206.5 21.5t63.5 87.5v229q-55 27 -129 42.5t-153 15.5q-129 0 -199 -49.5t-70 -143.5zM381 1391h149l117 -236h-96z" />
<glyph unicode="&#xe1;" horiz-adv-x="1134" d="M123 281q0 182 100.5 265t276.5 83q199 0 321 -72v121q0 229 -268 229q-88 0 -178 -24.5t-152 -73.5v147q61 39 167 61.5t210 22.5q172 0 271.5 -84t99.5 -243v-496q0 -147 -121 -197.5t-334 -50.5q-162 0 -277.5 72t-115.5 240zM270 303q0 -106 82 -154.5t199 -48.5 q143 0 206.5 21.5t63.5 87.5v229q-55 27 -129 42.5t-153 15.5q-129 0 -199 -49.5t-70 -143.5zM543 1155l116 236h152l-170 -236h-98z" />
<glyph unicode="&#xe2;" horiz-adv-x="1134" d="M123 281q0 182 100.5 265t276.5 83q199 0 321 -72v121q0 229 -268 229q-88 0 -178 -24.5t-152 -73.5v147q61 39 167 61.5t210 22.5q172 0 271.5 -84t99.5 -243v-496q0 -147 -121 -197.5t-334 -50.5q-162 0 -277.5 72t-115.5 240zM270 303q0 -106 82 -154.5t199 -48.5 q143 0 206.5 21.5t63.5 87.5v229q-55 27 -129 42.5t-153 15.5q-129 0 -199 -49.5t-70 -143.5zM369 1155l166 246h125l164 -246h-94l-134 143l-133 -143h-94z" />
<glyph unicode="&#xe3;" horiz-adv-x="1134" d="M123 281q0 182 100.5 265t276.5 83q199 0 321 -72v121q0 229 -268 229q-88 0 -178 -24.5t-152 -73.5v147q61 39 167 61.5t210 22.5q172 0 271.5 -84t99.5 -243v-496q0 -147 -121 -197.5t-334 -50.5q-162 0 -277.5 72t-115.5 240zM270 303q0 -106 82 -154.5t199 -48.5 q143 0 206.5 21.5t63.5 87.5v229q-55 27 -129 42.5t-153 15.5q-129 0 -199 -49.5t-70 -143.5zM299 1176q0 76 48 121.5t109 45.5q49 0 87 -19t89 -56q33 -27 55.5 -40.5t47.5 -13.5t39 16.5t14 47.5q0 10 -4 35h107q4 -29 4 -43q0 -76 -48.5 -123t-128.5 -47 q-45 0 -83.5 20.5t-83.5 55.5q-33 27 -54.5 39t-42.5 12q-25 0 -41 -19.5t-16 -56.5q0 -8 4 -37h-94q-8 31 -8 62z" />
<glyph unicode="&#xe4;" horiz-adv-x="1134" d="M123 281q0 182 100.5 265t276.5 83q199 0 321 -72v121q0 229 -268 229q-88 0 -178 -24.5t-152 -73.5v147q61 39 167 61.5t210 22.5q172 0 271.5 -84t99.5 -243v-496q0 -147 -121 -197.5t-334 -50.5q-162 0 -277.5 72t-115.5 240zM270 303q0 -106 82 -154.5t199 -48.5 q143 0 206.5 21.5t63.5 87.5v229q-55 27 -129 42.5t-153 15.5q-129 0 -199 -49.5t-70 -143.5zM362 1155v162h162v-162h-162zM665 1155v162h162v-162h-162z" />
<glyph unicode="&#xe5;" horiz-adv-x="1134" d="M123 281q0 182 100.5 265t276.5 83q199 0 321 -72v121q0 229 -268 229q-88 0 -178 -24.5t-152 -73.5v147q61 39 167 61.5t210 22.5q172 0 271.5 -84t99.5 -243v-496q0 -147 -121 -197.5t-334 -50.5q-162 0 -277.5 72t-115.5 240zM270 303q0 -106 82 -154.5t199 -48.5 q143 0 206.5 21.5t63.5 87.5v229q-55 27 -129 42.5t-153 15.5q-129 0 -199 -49.5t-70 -143.5zM389 1284q0 98 48 143.5t159 45.5q109 0 158 -45.5t49 -143.5t-49.5 -143t-157.5 -45q-111 0 -159 45t-48 143zM483 1284q0 -55 23.5 -77.5t89.5 -22.5q63 0 86.5 22.5t23.5 77.5 t-23.5 76.5t-86.5 21.5q-66 0 -89.5 -21.5t-23.5 -76.5z" />
<glyph unicode="&#xe6;" horiz-adv-x="1828" d="M123 281q0 186 117.5 267t314.5 81q160 0 266 -60v109q0 229 -268 229q-88 0 -178 -24.5t-152 -73.5v147q61 39 167 61.5t210 22.5q236 0 328 -149q113 150 342 149q233 0 341.5 -151.5t104.5 -403.5h-745q0 -184 86 -282.5t246 -98.5q205 0 350 89v-152 q-150 -72 -359 -72q-236 0 -358 144q-76 -63 -169 -103.5t-216 -40.5q-201 0 -314.5 76t-113.5 236zM270 293q0 -100 81 -146.5t200 -46.5q94 0 182 30t139 83q-43 100 -49 223q-55 27 -130 43.5t-154 16.5q-135 0 -202 -50.5t-67 -152.5zM977 621h584q-10 143 -81 213.5 t-210 70.5q-135 0 -205 -62.5t-88 -221.5z" />
<glyph unicode="&#xe7;" horiz-adv-x="1007" d="M113 512q0 295 138 411.5t341 116.5q154 0 303 -57v-141q-139 57 -287 57q-182 0 -265 -92t-83 -295q0 -205 83 -296t265 -91q154 0 287 57v-143q-123 -47 -252 -53l-127 -232h-156l166 232q-180 16 -296.5 136t-116.5 390z" />
<glyph unicode="&#xe8;" horiz-adv-x="1120" d="M113 512q0 260 117.5 394t330.5 134q234 0 342.5 -151.5t104.5 -403.5h-746q0 -184 86 -282.5t246 -98.5q205 0 350 89v-152q-150 -72 -358 -72q-223 0 -348 138.5t-125 404.5zM268 621h584q-10 143 -81 213.5t-210 70.5q-135 0 -204.5 -62.5t-88.5 -221.5zM365 1391h149 l117 -236h-96z" />
<glyph unicode="&#xe9;" horiz-adv-x="1120" d="M113 512q0 260 117.5 394t330.5 134q234 0 342.5 -151.5t104.5 -403.5h-746q0 -184 86 -282.5t246 -98.5q205 0 350 89v-152q-150 -72 -358 -72q-223 0 -348 138.5t-125 404.5zM268 621h584q-10 143 -81 213.5t-210 70.5q-135 0 -204.5 -62.5t-88.5 -221.5zM527 1155 l116 236h152l-170 -236h-98z" />
<glyph unicode="&#xea;" horiz-adv-x="1120" d="M113 512q0 260 117.5 394t330.5 134q234 0 342.5 -151.5t104.5 -403.5h-746q0 -184 86 -282.5t246 -98.5q205 0 350 89v-152q-150 -72 -358 -72q-223 0 -348 138.5t-125 404.5zM268 621h584q-10 143 -81 213.5t-210 70.5q-135 0 -204.5 -62.5t-88.5 -221.5zM352 1155 l166 246h125l164 -246h-94l-134 143l-133 -143h-94z" />
<glyph unicode="&#xeb;" horiz-adv-x="1120" d="M113 512q0 260 117.5 394t330.5 134q234 0 342.5 -151.5t104.5 -403.5h-746q0 -184 86 -282.5t246 -98.5q205 0 350 89v-152q-150 -72 -358 -72q-223 0 -348 138.5t-125 404.5zM268 621h584q-10 143 -81 213.5t-210 70.5q-135 0 -204.5 -62.5t-88.5 -221.5zM346 1155v162 h162v-162h-162zM649 1155v162h162v-162h-162z" />
<glyph unicode="&#xec;" horiz-adv-x="552" d="M57 1391h152l117 -236h-99zM203 0v1022h147v-1022h-147z" />
<glyph unicode="&#xed;" horiz-adv-x="552" d="M203 0v1022h147v-1022h-147zM227 1155l115 236h152l-170 -236h-97z" />
<glyph unicode="&#xee;" horiz-adv-x="552" d="M68 1155l165 246h84l166 -246h-114l-93 143l-94 -143h-114zM203 0v1022h147v-1022h-147z" />
<glyph unicode="&#xef;" horiz-adv-x="552" d="M43 1155v162h162v-162h-162zM203 0v1022h147v-1022h-147zM346 1155v162h162v-162h-162z" />
<glyph unicode="&#xf0;" horiz-adv-x="1161" d="M113 508q0 264 119.5 398t347.5 134q100 0 178 -41q-57 88 -133 170l-271 -45l-18 117l184 31q-82 72 -164 133v6h234q66 -61 110 -111l213 35l17 -116l-135 -23q254 -311 254 -641q0 -274 -119 -430t-346 -156q-236 0 -353.5 139.5t-117.5 399.5zM260 508 q0 -403 322 -404q98 0 166.5 36t109.5 135.5t43 279.5q0 135 -51 266q-53 39 -123 61.5t-145 22.5q-322 0 -322 -397z" />
<glyph unicode="&#xf1;" d="M164 0v940q199 100 432 100q215 0 310 -94t95 -280v-666h-147v666q0 242 -274 241q-127 0 -269 -41v-866h-147zM289 1176q0 76 48 121.5t109 45.5q49 0 87 -19t89 -56q33 -27 55.5 -40.5t47.5 -13.5t39 16.5t14 47.5q0 10 -4 35h107q4 -29 4 -43q0 -76 -48.5 -123 t-128.5 -47q-45 0 -83.5 20.5t-83.5 55.5q-33 27 -54.5 39t-42.5 12q-25 0 -41 -19.5t-16 -56.5q0 -8 4 -37h-94q-8 31 -8 62z" />
<glyph unicode="&#xf2;" d="M113 508q0 264 119.5 398t347.5 134q240 0 356.5 -142t116.5 -390q0 -254 -123 -396.5t-346 -142.5q-236 0 -353.5 139.5t-117.5 399.5zM260 508q0 -403 322 -404q323 1 323 404q0 193 -75.5 295t-247.5 102q-322 0 -322 -397zM373 1391h149l117 -236h-96z" />
<glyph unicode="&#xf3;" d="M113 508q0 264 119.5 398t347.5 134q240 0 356.5 -142t116.5 -390q0 -254 -123 -396.5t-346 -142.5q-236 0 -353.5 139.5t-117.5 399.5zM260 508q0 -403 322 -404q323 1 323 404q0 193 -75.5 295t-247.5 102q-322 0 -322 -397zM535 1155l116 236h152l-170 -236h-98z" />
<glyph unicode="&#xf4;" d="M113 508q0 264 119.5 398t347.5 134q240 0 356.5 -142t116.5 -390q0 -254 -123 -396.5t-346 -142.5q-236 0 -353.5 139.5t-117.5 399.5zM260 508q0 -403 322 -404q323 1 323 404q0 193 -75.5 295t-247.5 102q-322 0 -322 -397zM360 1155l166 246h125l164 -246h-94 l-134 143l-133 -143h-94z" />
<glyph unicode="&#xf5;" d="M113 508q0 264 119.5 398t347.5 134q240 0 356.5 -142t116.5 -390q0 -254 -123 -396.5t-346 -142.5q-236 0 -353.5 139.5t-117.5 399.5zM260 508q0 -403 322 -404q323 1 323 404q0 193 -75.5 295t-247.5 102q-322 0 -322 -397zM291 1176q0 76 48 121.5t109 45.5 q49 0 87 -19t89 -56q33 -27 55.5 -40.5t47.5 -13.5t39 16.5t14 47.5q0 10 -4 35h107q4 -29 4 -43q0 -76 -48.5 -123t-128.5 -47q-45 0 -83.5 20.5t-83.5 55.5q-33 27 -54.5 39t-42.5 12q-25 0 -41 -19.5t-16 -56.5q0 -8 4 -37h-94q-8 31 -8 62z" />
<glyph unicode="&#xf6;" d="M113 508q0 264 119.5 398t347.5 134q240 0 356.5 -142t116.5 -390q0 -254 -123 -396.5t-346 -142.5q-236 0 -353.5 139.5t-117.5 399.5zM260 508q0 -403 322 -404q323 1 323 404q0 193 -75.5 295t-247.5 102q-322 0 -322 -397zM354 1155v162h162v-162h-162zM657 1155v162 h162v-162h-162z" />
<glyph unicode="&#xf7;" horiz-adv-x="1286" d="M227 465v123h832v-123h-832zM561 152v163h164v-163h-164zM561 735v164h164v-164h-164z" />
<glyph unicode="&#xf8;" horiz-adv-x="1175" d="M76 0l125 147q-88 133 -88 361q0 264 119.5 398t347.5 134q186 0 299 -88l59 70h160l-135 -160q90 -133 90 -354q0 -254 -123 -396.5t-346 -142.5q-186 0 -299 88l-49 -57h-160zM260 508q0 -146 41 -240l487 576q-78 61 -206 61q-322 0 -322 -397zM377 168 q76 -63 205 -64q324 0 323 404q0 147 -41 237z" />
<glyph unicode="&#xf9;" horiz-adv-x="1183" d="M164 375v647h147v-614q0 -156 67.5 -229t213.5 -73q143 0 211.5 73t68.5 229v614h148v-647q0 -195 -111.5 -300.5t-316.5 -105.5t-316.5 105.5t-111.5 300.5zM377 1391h149l117 -236h-96z" />
<glyph unicode="&#xfa;" horiz-adv-x="1183" d="M164 375v647h147v-614q0 -156 67.5 -229t213.5 -73q143 0 211.5 73t68.5 229v614h148v-647q0 -195 -111.5 -300.5t-316.5 -105.5t-316.5 105.5t-111.5 300.5zM539 1155l116 236h152l-170 -236h-98z" />
<glyph unicode="&#xfb;" horiz-adv-x="1183" d="M164 375v647h147v-614q0 -156 67.5 -229t213.5 -73q143 0 211.5 73t68.5 229v614h148v-647q0 -195 -111.5 -300.5t-316.5 -105.5t-316.5 105.5t-111.5 300.5zM364 1155l166 246h125l164 -246h-94l-134 143l-133 -143h-94z" />
<glyph unicode="&#xfc;" horiz-adv-x="1183" d="M164 375v647h147v-614q0 -156 67.5 -229t213.5 -73q143 0 211.5 73t68.5 229v614h148v-647q0 -195 -111.5 -300.5t-316.5 -105.5t-316.5 105.5t-111.5 300.5zM358 1155v162h162v-162h-162zM661 1155v162h162v-162h-162z" />
<glyph unicode="&#xfd;" horiz-adv-x="1105" d="M72 1022h168l323 -834l324 834h147l-438 -1122q-63 -164 -148.5 -229.5t-173.5 -65.5q-49 0 -96 18v135q41 -18 88 -18q88 0 137.5 63.5t92.5 192.5zM510 1155l116 236h152l-170 -236h-98z" />
<glyph unicode="&#xfe;" d="M164 -410v1821h147v-410q111 39 267 39q204 0 339.5 -132t135.5 -423q0 -240 -127 -377t-361 -137q-53 0 -122.5 16.5t-131.5 43.5v-441h-147zM311 178q123 -72 254 -72q162 0 247 102.5t85 276.5q0 193 -69.5 306.5t-252.5 113.5q-111 0 -187.5 -25.5t-76.5 -68.5v-633z " />
<glyph unicode="&#xff;" horiz-adv-x="1105" d="M72 1022h168l323 -834l324 834h147l-438 -1122q-63 -164 -148.5 -229.5t-173.5 -65.5q-49 0 -96 18v135q41 -18 88 -18q88 0 137.5 63.5t92.5 192.5zM329 1155v162h162v-162h-162zM632 1155v162h162v-162h-162z" />
<glyph unicode="&#x152;" horiz-adv-x="2215" d="M123 682q0 348 154.5 525t457.5 177q311 0 465 -182v164h862v-139h-714v-467v-4h628v-144h-628v-8v-465h714v-139h-862v162q-154 -182 -465 -182q-303 0 -457.5 177t-154.5 525zM274 682q0 -293 111 -428t350 -135q242 0 352.5 135t110.5 428q0 291 -110.5 427 t-352.5 136q-240 0 -350.5 -136t-110.5 -427z" />
<glyph unicode="&#x153;" horiz-adv-x="1916" d="M113 508q0 264 119.5 398t347.5 134q283 0 399 -204q55 102 151.5 153t227.5 51q233 0 341.5 -151.5t104.5 -403.5h-745q0 -184 86 -282.5t246 -98.5q205 0 350 89v-152q-150 -72 -359 -72q-139 0 -241.5 54.5t-159.5 160.5q-57 -104 -158.5 -159.5t-238.5 -55.5 q-236 0 -353.5 139.5t-117.5 399.5zM260 508q0 -403 322 -404q323 1 323 404q0 193 -75.5 295t-247.5 102q-322 0 -322 -397zM1065 621h584q-10 143 -81 213.5t-210 70.5q-135 0 -205 -62.5t-88 -221.5z" />
<glyph unicode="&#x178;" horiz-adv-x="1224" d="M25 1366h178l403 -598l406 598h178l-508 -739v-627h-147v627zM391 1487v162h162v-162h-162zM694 1487v162h162v-162h-162z" />
<glyph unicode="&#x2c6;" horiz-adv-x="823" d="M186 1155l166 246h125l164 -246h-94l-133 143l-133 -143h-95z" />
<glyph unicode="&#x2dc;" horiz-adv-x="800" d="M102 1176q0 76 48.5 121.5t109.5 45.5q49 0 87 -19t89 -56q33 -27 55.5 -40.5t47.5 -13.5t39 16.5t14 47.5q0 10 -4 35h106q4 -29 4 -43q0 -76 -48 -123t-128 -47q-45 0 -84 20.5t-84 55.5q-33 27 -54 39t-42 12q-25 0 -41 -19.5t-16 -56.5q0 -8 4 -37h-94q-8 31 -9 62z " />
<glyph unicode="&#x2000;" horiz-adv-x="867" />
<glyph unicode="&#x2001;" horiz-adv-x="1735" />
<glyph unicode="&#x2002;" horiz-adv-x="867" />
<glyph unicode="&#x2003;" horiz-adv-x="1735" />
<glyph unicode="&#x2004;" horiz-adv-x="578" />
<glyph unicode="&#x2005;" horiz-adv-x="433" />
<glyph unicode="&#x2006;" horiz-adv-x="289" />
<glyph unicode="&#x2007;" horiz-adv-x="289" />
<glyph unicode="&#x2008;" horiz-adv-x="216" />
<glyph unicode="&#x2009;" horiz-adv-x="347" />
<glyph unicode="&#x200a;" horiz-adv-x="96" />
<glyph unicode="&#x2010;" horiz-adv-x="950" d="M162 539v143h624v-143h-624z" />
<glyph unicode="&#x2011;" horiz-adv-x="950" d="M162 539v143h624v-143h-624z" />
<glyph unicode="&#x2012;" horiz-adv-x="950" d="M162 539v143h624v-143h-624z" />
<glyph unicode="&#x2013;" horiz-adv-x="1146" d="M141 528v127h860v-127h-860z" />
<glyph unicode="&#x2014;" horiz-adv-x="1824" d="M162 528v136h1501v-136h-1501z" />
<glyph unicode="&#x2018;" horiz-adv-x="522" d="M96 1384h168l152 -401h-148z" />
<glyph unicode="&#x2019;" horiz-adv-x="522" d="M96 983l152 401h168l-172 -401h-148z" />
<glyph unicode="&#x201a;" horiz-adv-x="614" d="M147 -229l152 401h166l-170 -401h-148z" />
<glyph unicode="&#x201c;" horiz-adv-x="800" d="M96 1384h168l152 -401h-148zM375 1384h168l151 -401h-147z" />
<glyph unicode="&#x201d;" horiz-adv-x="792" d="M96 983l152 401h168l-172 -401h-148zM375 983l151 401h168l-172 -401h-147z" />
<glyph unicode="&#x201e;" horiz-adv-x="892" d="M147 -229l152 401h166l-170 -401h-148zM426 -229l152 401h167l-172 -401h-147z" />
<glyph unicode="&#x2022;" horiz-adv-x="849" d="M184 684q0 98 70 167t168 69q96 0 165.5 -69t69.5 -167t-69.5 -168t-165.5 -70q-98 0 -168 70t-70 168z" />
<glyph unicode="&#x2026;" horiz-adv-x="1576" d="M219 0v164h164v-164h-164zM711 0v164h161v-164h-161zM1200 0v164h162v-164h-162z" />
<glyph unicode="&#x202f;" horiz-adv-x="347" />
<glyph unicode="&#x2039;" horiz-adv-x="710" d="M63 522l347 389h198l-364 -389l364 -391h-198z" />
<glyph unicode="&#x203a;" horiz-adv-x="776" d="M137 131l363 391l-363 389h197l348 -389l-348 -391h-197z" />
<glyph unicode="&#x205f;" horiz-adv-x="433" />
<glyph unicode="&#x20ac;" horiz-adv-x="1390" d="M102 467v123h136q-4 61 -5 94q0 33 5 94h-136v123h150q45 240 199.5 361.5t414.5 121.5q215 0 416 -79v-142q-195 82 -399 82q-207 0 -325 -84t-157 -260h658v-123h-674q-4 -61 -4 -94q0 -37 4 -94h674v-123h-658q39 -176 157 -260t325 -84q209 0 399 80v-142 q-203 -78 -416 -77q-524 0 -614 483h-150z" />
<glyph unicode="&#x2122;" horiz-adv-x="1550" d="M100 1294v72h557v-72h-241v-610h-74v610h-242zM762 684v682h80l235 -346l236 346h80v-682h-74v561l-242 -348l-241 348v-561h-74z" />
<glyph unicode="&#x25fc;" horiz-adv-x="1024" d="M0 0v1024h1024v-1024h-1024z" />
</font>
</defs>
</svg>
