<?xml version="1.0" standalone="no"?>
<!DOCTYPE svg PUBLIC "-//W3C//DTD SVG 1.1//EN" "http://www.w3.org/Graphics/SVG/1.1/DTD/svg11.dtd" >
<svg xmlns="http://www.w3.org/2000/svg" xmlns:xlink="http://www.w3.org/1999/xlink" version="1.1">
<metadata></metadata>
<defs>
<font id="work_sanssemibold" horiz-adv-x="1236" >
<font-face units-per-em="2048" ascent="1638" descent="-410" />
<missing-glyph horiz-adv-x="626" />
<glyph unicode="&#xfb01;" horiz-adv-x="1411" d="M43 815v209h178v123q0 168 104.5 257t282.5 89q68 0 124 -14.5t89 -38.5l-39 -187q-47 31 -116 31q-176 0 -177 -158v-102h324v-209h-311v-815h-281v815h-178zM949 1321q0 152 174 152t174 -152q0 -150 -174 -150t-174 150zM981 0v1024h281v-1024h-281z" />
<glyph unicode="&#xfb02;" horiz-adv-x="1486" d="M43 815v209h178v123q0 168 104.5 257t282.5 89q68 0 124 -14.5t89 -38.5l-39 -187q-47 31 -116 31q-176 0 -177 -158v-102h324v-209h-311v-815h-281v815h-178zM977 285v1188h281v-1147q0 -74 21.5 -102.5t78.5 -28.5q35 0 60.5 5t60.5 17l-24 -194q-33 -20 -86.5 -31.5 t-104.5 -11.5q-150 0 -218.5 72.5t-68.5 232.5z" />
<glyph horiz-adv-x="0" />
<glyph horiz-adv-x="682" />
<glyph unicode=" "  horiz-adv-x="626" />
<glyph unicode="&#x09;" horiz-adv-x="626" />
<glyph unicode="&#xa0;" horiz-adv-x="626" />
<glyph unicode="!" horiz-adv-x="595" d="M123 139q0 72 47 115t127 43t127 -43t47 -115t-47 -114.5t-127 -42.5t-127 43t-47 114zM150 860v492h294v-492l-34 -424h-226z" />
<glyph unicode="&#x22;" horiz-adv-x="882" d="M143 852v545h250l-57 -545h-193zM526 852v545h250l-57 -545h-193z" />
<glyph unicode="#" horiz-adv-x="1374" d="M49 348v178h258l49 305h-219v179h248l55 342h203l-55 -342h291l57 342h201l-56 -342h242v-179h-272l-50 -305h234v-178h-262l-58 -348h-200l57 348h-293l-57 -348h-201l55 348h-227zM508 526h293l49 305h-293z" />
<glyph unicode="$" horiz-adv-x="1288" d="M68 293l165 156q37 -98 128.5 -162t209.5 -82v373q-137 27 -232 62.5t-158.5 109t-63.5 196.5q0 162 120.5 271.5t333.5 130.5v192h177v-192q166 -12 271 -76t189 -182l-157 -162q-57 102 -128 153.5t-175 63.5v-381q137 -29 232 -65.5t158.5 -112.5t63.5 -201 q0 -162 -125 -263.5t-329 -117.5v-192h-177v190q-182 14 -306 87t-197 204zM375 965q0 -66 50 -103t146 -61v342q-96 -14 -146 -60.5t-50 -117.5zM748 205q198 23 198 166q0 68 -51 105.5t-147 62.5v-334z" />
<glyph unicode="%" horiz-adv-x="1859" d="M70 991q0 172 99 276.5t261 104.5q164 0 262.5 -104.5t98.5 -276.5t-98.5 -276.5t-262.5 -104.5q-162 0 -261 104.5t-99 276.5zM287 991q0 -88 36.5 -136t106.5 -48t106.5 48t36.5 136t-36.5 137.5t-106.5 49.5t-106.5 -49.5t-36.5 -137.5zM362 0l912 1352h225 l-911 -1352h-226zM1069 360q0 172 98.5 276.5t262.5 104.5q161 0 260.5 -104.5t99.5 -276.5t-99.5 -276t-260.5 -104q-164 0 -262.5 104t-98.5 276zM1286 360q0 -88 37 -137t107 -49t106.5 49t36.5 137t-37 136.5t-106 48.5q-70 0 -107 -48t-37 -137z" />
<glyph unicode="&#x26;" horiz-adv-x="1306" d="M70 346q0 115 68.5 213t226.5 164q-86 102 -117 172t-31 149q0 84 43 159t128 122t206 47q172 0 272.5 -82t100.5 -223q0 -119 -65.5 -210t-221.5 -163q84 -94 115 -131l51 -57q72 -84 96 -111q68 133 59 312l195 -11q4 -123 -29.5 -231.5t-101.5 -194.5 q55 -51 101 -71.5t102 -20.5q25 0 37 2l-35 -200q-104 0 -178 26.5t-168 110.5q-74 -66 -174.5 -101.5t-221.5 -35.5q-207 0 -332.5 99t-125.5 267zM313 360q0 -81 66.5 -133.5t167.5 -52.5q137 0 250 66q-76 80 -150 163l-39 43q-90 98 -131 146q-96 -66 -130 -116 t-34 -116zM463 1038q0 -47 22.5 -92t94.5 -131q96 61 126.5 115.5t30.5 124.5q0 59 -36.5 90t-102.5 31q-63 0 -99 -38t-36 -100z" />
<glyph unicode="'" horiz-adv-x="499" d="M143 852v545h250l-57 -545h-193z" />
<glyph unicode="(" horiz-adv-x="770" d="M133 565q0 305 117 545t346 410l139 -138q-184 -168 -263 -356t-79 -461q0 -274 79 -462.5t263 -356.5l-139 -137q-229 170 -346 410.5t-117 545.5z" />
<glyph unicode=")" horiz-adv-x="770" d="M35 -254q184 168 263 356.5t79 462.5q0 272 -79 460.5t-263 356.5l139 138q229 -170 346 -410t117 -545t-117 -545.5t-346 -410.5z" />
<glyph unicode="*" horiz-adv-x="1191" d="M90 1053l62 194l256 -86l110 -59l-20 125l-6 268h206l-4 -268l-20 -125l110 59l256 86l62 -194l-256 -80l-123 -19l90 -88l160 -215l-166 -121l-156 220l-55 112l-55 -112l-156 -220l-166 121l162 215l88 88l-123 19z" />
<glyph unicode="+" d="M111 553v213h393v422h231v-422h391v-213h-391v-424h-231v424h-393z" />
<glyph unicode="," horiz-adv-x="575" d="M90 -217q90 35 151.5 90t82.5 125l-9 6q-20 -20 -59 -20q-59 0 -104.5 41t-45.5 116q0 80 49.5 126t129.5 46q94 0 145 -66.5t51 -172.5q0 -125 -66.5 -228.5t-195.5 -160.5z" />
<glyph unicode="-" horiz-adv-x="1067" d="M172 422v242h723v-242h-723z" />
<glyph unicode="." horiz-adv-x="575" d="M111 147q0 78 48 122t130 44t130 -45t48 -121t-48 -120.5t-130 -44.5t-130 44t-48 121z" />
<glyph unicode="/" horiz-adv-x="935" d="M41 -143l592 1616h262l-594 -1616h-260z" />
<glyph unicode="0" horiz-adv-x="1302" d="M111 676q0 344 136 520t404 176t404.5 -176t136.5 -520t-136 -520t-405 -176q-268 0 -404 176t-136 520zM393 676q0 -240 63.5 -354.5t194.5 -114.5t194.5 114.5t63.5 354.5t-63.5 354.5t-194.5 114.5t-194.5 -115t-63.5 -354z" />
<glyph unicode="1" horiz-adv-x="876" d="M63 1118q94 10 226.5 85t183.5 149h229v-1352h-274v1008q0 33 2 51q-74 -68 -159 -115t-171 -63z" />
<glyph unicode="2" horiz-adv-x="1210" d="M90 934q14 205 151.5 321.5t358.5 116.5q158 0 267.5 -59.5t164.5 -156.5t55 -214q0 -190 -143 -359t-457 -362v-2q119 8 248 8h373v-227h-975v193q248 166 393.5 290.5t211 231t65.5 211.5q0 96 -58.5 155.5t-160.5 59.5q-113 0 -178.5 -78t-71.5 -221z" />
<glyph unicode="3" horiz-adv-x="1206" d="M80 311l256 115q23 -113 83 -166t171 -53q104 0 165.5 52t61.5 140q0 94 -58.5 136.5t-183.5 42.5h-67v196h57q221 0 221 187q0 90 -50 137t-142 47q-94 0 -151.5 -49t-71.5 -144l-252 92q39 162 169 245t318 83q217 0 339 -102.5t122 -265.5q0 -100 -41 -173 t-100.5 -110t-112.5 -37v-6q68 0 132.5 -35t106.5 -105.5t42 -170.5q0 -113 -64.5 -201t-179.5 -137t-262 -49q-199 0 -325 80.5t-183 250.5z" />
<glyph unicode="4" horiz-adv-x="1296" d="M76 317v150l592 885h338v-830h219v-205h-219v-317h-256v317h-674zM348 522h402v414l6 221h-4q-45 -104 -123 -223z" />
<glyph unicode="5" horiz-adv-x="1191" d="M86 264l254 142q27 -100 83 -150.5t169 -50.5t177.5 59.5t64.5 167.5q-2 111 -61.5 169t-174.5 58q-170 0 -248 -98l-221 25l84 766h813v-228h-600l-39 -317l-6 -39h2q45 49 120 75.5t169 26.5q196 0 310 -115.5t114 -303.5q0 -227 -138.5 -349t-363.5 -122 q-182 0 -306 68.5t-202 215.5z" />
<glyph unicode="6" horiz-adv-x="1263" d="M119 676q0 227 73.5 384t201.5 234.5t294 77.5q170 0 283.5 -70.5t171.5 -224.5l-238 -110q-53 172 -235 172q-86 0 -153.5 -58.5t-105.5 -163t-38 -239.5v-35h6q33 100 127 151.5t217 51.5q129 0 229.5 -52.5t156.5 -148.5t56 -225q0 -203 -133 -321.5t-366 -118.5 q-262 0 -404.5 183t-142.5 513zM438 424q0 -100 63.5 -159.5t168.5 -59.5q109 0 169 57t60 162q0 100 -60.5 157.5t-168.5 57.5q-105 0 -168.5 -59.5t-63.5 -155.5z" />
<glyph unicode="7" horiz-adv-x="1218" d="M84 1120v232h1071v-215q-246 -246 -352.5 -522.5t-106.5 -614.5h-282q0 641 458 1120h-788z" />
<glyph unicode="8" horiz-adv-x="1275" d="M111 360q0 123 66.5 210t189.5 128v2q-98 39 -152.5 117t-54.5 182q0 172 128 270.5t349 98.5t350 -98.5t129 -270.5q0 -104 -54 -182t-151 -117v-2q121 -43 187.5 -129t66.5 -209q0 -176 -142 -278t-386 -102q-242 0 -384 102t-142 278zM387 395q0 -92 67.5 -144 t182.5 -52q119 0 184.5 52t65.5 144q0 94 -66.5 146.5t-183.5 52.5q-115 0 -182.5 -53.5t-67.5 -145.5zM430 973q0 -82 56.5 -130t150.5 -48q96 0 152.5 48t56.5 130q0 84 -55.5 131t-153.5 47q-96 0 -151.5 -47t-55.5 -131z" />
<glyph unicode="9" horiz-adv-x="1265" d="M104 922q0 209 134.5 329.5t369.5 120.5q262 0 404.5 -183t142.5 -517q0 -348 -143.5 -520t-409.5 -172q-186 0 -306 73.5t-181 225.5l260 110q25 -92 75 -138t154 -46q154 0 224.5 118.5t70.5 342.5v28h-8q-27 -104 -123 -155.5t-219 -51.5q-127 0 -227.5 53.5t-159 152 t-58.5 229.5zM375 922q0 -102 59.5 -159.5t169.5 -57.5q104 0 167 59t63 158q0 100 -62.5 159.5t-167.5 59.5q-110 0 -169.5 -57.5t-59.5 -161.5z" />
<glyph unicode=":" horiz-adv-x="614" d="M129 147q0 78 48 122t130 44t130 -45t48 -121t-48 -120.5t-130 -44.5t-130 44t-48 121zM129 878q0 78 48 122t130 44t130 -45t48 -121t-48 -120.5t-130 -44.5t-130 44t-48 121z" />
<glyph unicode=";" horiz-adv-x="614" d="M111 -217q92 35 153.5 90t81.5 125l-8 6q-25 -20 -62 -20q-59 0 -104 41t-45 116q0 78 50 125t128 47q94 0 145.5 -66.5t51.5 -172.5q0 -125 -66.5 -228.5t-195.5 -160.5zM135 879q0 78 48 121.5t130 43.5t130.5 -44t48.5 -121q0 -78 -48.5 -122t-130.5 -44t-130 44 t-48 122z" />
<glyph unicode="&#x3c;" d="M135 479v260l993 453v-272l-796 -310l796 -311v-270z" />
<glyph unicode="=" d="M131 319v207h975v-207h-975zM131 750v208h975v-208h-975z" />
<glyph unicode="&#x3e;" d="M109 29v270l796 311l-796 310v272l993 -453v-260z" />
<glyph unicode="?" horiz-adv-x="1193" d="M72 1016q27 164 161 260t371 96q225 0 361.5 -93t136.5 -269q0 -178 -105.5 -271.5t-281.5 -111.5l-15 -193h-249l-13 309q195 20 279 74.5t84 151.5q0 80 -54.5 124t-160.5 44t-173 -60.5t-75 -171.5zM401 141q0 74 46.5 117t127.5 43q82 0 129.5 -43t47.5 -117 t-47.5 -116.5t-129.5 -42.5t-128 43t-46 116z" />
<glyph unicode="@" horiz-adv-x="1966" d="M113 457q0 264 114.5 466.5t320.5 315.5t472 113q262 0 448.5 -101.5t282.5 -287t96 -431.5q0 -172 -54 -293.5t-147.5 -182t-207.5 -60.5q-104 0 -171 49t-98 131q-111 -172 -331 -172q-150 0 -244 108.5t-94 286.5q0 176 64.5 302t172 190.5t234.5 64.5q111 0 174 -48 t86 -117l41 147h196l-86 -604q-4 -41 -4 -58q0 -63 28 -94.5t89 -31.5q94 0 149.5 98t55.5 284q0 319 -178.5 498.5t-501.5 179.5q-225 0 -393 -91t-260.5 -261t-92.5 -401q0 -217 91.5 -376t247 -242t343.5 -83q158 0 252.5 32t171.5 89l82 -110q-106 -74 -216.5 -113 t-293.5 -39q-246 0 -436 102.5t-296.5 293t-106.5 446.5zM743 430q0 -111 47.5 -171t133.5 -60t150.5 53t76.5 154l20 141q4 33 5 49q0 80 -42 126t-130 46q-117 0 -189 -90t-72 -248z" />
<glyph unicode="A" horiz-adv-x="1374" d="M25 0l493 1352h338l494 -1352h-293l-113 330h-520l-111 -330h-288zM494 539h380l-126 381l-62 204h-4l-57 -200z" />
<glyph unicode="B" horiz-adv-x="1376" d="M176 0v1352h592q242 0 360.5 -95.5t118.5 -273.5q0 -113 -67.5 -195.5t-190.5 -103.5v-2q139 -20 216 -105t77 -206q0 -176 -127 -273.5t-367 -97.5h-612zM451 213h313q113 0 169 46t56 132t-56 131t-169 45h-313v-354zM451 784h278q225 0 225 174t-225 175h-278v-349z " />
<glyph unicode="C" horiz-adv-x="1398" d="M109 676q0 215 78.5 371.5t225 240.5t343.5 84q211 0 357.5 -88t201.5 -262l-256 -109q-33 121 -102.5 174.5t-188.5 53.5q-172 0 -269.5 -121t-97.5 -344t94.5 -344t266.5 -121q248 0 311 240l260 -78q-59 -195 -210.5 -294t-362.5 -99q-199 0 -346.5 83.5t-226 240.5 t-78.5 372z" />
<glyph unicode="D" horiz-adv-x="1472" d="M176 0v1352h522q318 0 492 -176.5t174 -499.5q0 -324 -174 -500t-492 -176h-522zM459 225h225q193 0 290 116t97 335t-97 334.5t-290 115.5h-225v-901z" />
<glyph unicode="E" horiz-adv-x="1296" d="M176 0v1352h1014v-228h-731v-336h575v-217h-575v-344h760v-227h-1043z" />
<glyph unicode="F" horiz-adv-x="1253" d="M176 0v1352h1012v-228h-729v-342h575v-229h-575v-553h-283z" />
<glyph unicode="G" horiz-adv-x="1480" d="M109 674q0 215 80.5 372.5t229 241.5t347.5 84q219 0 357.5 -80t217.5 -252l-260 -112q-31 104 -111.5 158.5t-195.5 54.5q-176 0 -274.5 -121t-98.5 -344q0 -231 96.5 -350t282.5 -119q143 0 233.5 68.5t90.5 199.5v31h-395v209h639v-715h-207l-6 162 q-123 -182 -400 -182q-186 0 -327.5 81.5t-220 238.5t-78.5 374z" />
<glyph unicode="H" horiz-adv-x="1513" d="M176 0v1352h283v-555h596v555h282v-1352h-282v569h-596v-569h-283z" />
<glyph unicode="I" horiz-adv-x="634" d="M176 0v1352h283v-1352h-283z" />
<glyph unicode="J" horiz-adv-x="1230" d="M70 381q0 57 12 121l276 49q-8 -57 -8 -115q0 -117 49.5 -171t153.5 -54q131 0 185.5 79t54.5 247v815h282v-854q0 -244 -139 -381t-391 -137q-233 0 -354 107.5t-121 293.5z" />
<glyph unicode="K" horiz-adv-x="1390" d="M176 0v1352h283v-641l555 641h327l-485 -551l502 -801h-324l-383 618l-192 -219v-399h-283z" />
<glyph unicode="L" horiz-adv-x="1230" d="M176 0v1352h283v-1125h712v-227h-995z" />
<glyph unicode="M" horiz-adv-x="1822" d="M176 0v1352h410l243 -738l86 -305h5l88 303l241 740h398v-1352h-254v705l12 395h-4l-375 -1100h-231l-373 1100h-4l14 -395v-705h-256z" />
<glyph unicode="N" horiz-adv-x="1513" d="M176 0v1352h322l473 -793l116 -229h5l-9 239v783h254v-1352h-323l-473 795l-117 227h-2l8 -240v-782h-254z" />
<glyph unicode="O" horiz-adv-x="1517" d="M109 676q0 215 78.5 371.5t226 240.5t346.5 84q198 0 344.5 -84t225.5 -240.5t79 -371.5t-79 -372t-225.5 -240.5t-344.5 -83.5q-199 0 -346.5 83.5t-226 240.5t-78.5 372zM401 676q0 -225 93.5 -345t265.5 -120q170 0 263 120t93 345t-93 345t-263 120 q-172 0 -265.5 -120t-93.5 -345z" />
<glyph unicode="P" horiz-adv-x="1323" d="M176 0v1352h567q236 0 367 -114t131 -320q0 -201 -131 -313.5t-367 -112.5h-284v-492h-283zM459 711h241q131 0 192.5 52t61.5 157q0 104 -61.5 155t-192.5 51h-241v-415z" />
<glyph unicode="Q" horiz-adv-x="1517" d="M109 676q0 215 78.5 371.5t226 240.5t346.5 84t345 -84t225 -240.5t79 -371.5q0 -297 -147.5 -479.5t-407.5 -210.5q10 -92 67.5 -127t159.5 -35q80 0 143.5 20.5t104.5 57.5l74 -217q-53 -45 -142.5 -71t-189.5 -26q-197 0 -307 102q-107 97 -107 282v14 q-258 31 -403 213t-145 477zM401 676q0 -225 93.5 -345t265.5 -120q170 0 263 120t93 345t-93 345t-263 120q-172 0 -265.5 -120t-93.5 -345z" />
<glyph unicode="R" horiz-adv-x="1392" d="M176 0v1352h596q231 0 361.5 -109.5t130.5 -308.5q0 -145 -72 -243.5t-205 -141.5l356 -549h-317l-317 518h-254v-518h-279zM455 733h280q123 0 181.5 48t58.5 149q0 100 -58.5 148t-181.5 48h-280v-393z" />
<glyph unicode="S" horiz-adv-x="1316" d="M78 231l168 201q76 -125 174 -173t244 -48q131 0 199.5 41t68.5 117q0 55 -64.5 92t-230.5 69q-190 39 -304 92.5t-165 131t-51 192.5q0 121 65.5 218.5t191.5 152.5t296 55q188 0 323 -62.5t238 -197.5l-195 -190q-53 111 -141 165t-223 54q-123 0 -189.5 -46 t-66.5 -122q0 -70 67.5 -111t243.5 -71q184 -35 292.5 -86.5t159 -128t50.5 -191.5q0 -125 -71 -216t-196.5 -140t-287.5 -49q-223 0 -365.5 62t-230.5 189z" />
<glyph unicode="T" horiz-adv-x="1300" d="M55 1124v228h1190v-228h-452v-1124h-283v1124h-455z" />
<glyph unicode="U" horiz-adv-x="1464" d="M156 532v820h282v-807q0 -170 73 -252t222 -82q150 0 221.5 82t71.5 252v807h285v-820q0 -274 -146.5 -413t-431.5 -139t-431 139t-146 413z" />
<glyph unicode="V" horiz-adv-x="1372" d="M29 1352h299l284 -860l78 -267l76 264l287 863h290l-491 -1352h-330z" />
<glyph unicode="W" horiz-adv-x="2015" d="M39 1352h305l262 -1129l271 1129h270l274 -1129l262 1129h291l-393 -1352h-317l-189 737l-63 320h-4l-64 -320l-186 -737h-326z" />
<glyph unicode="X" horiz-adv-x="1310" d="M33 0l465 682l-432 670h333l275 -471l274 471h305l-434 -660l459 -692h-338l-295 489l-289 -489h-323z" />
<glyph unicode="Y" horiz-adv-x="1282" d="M20 1352h302l217 -404l102 -213l104 213l218 404h299l-480 -846v-506h-282v506z" />
<glyph unicode="Z" horiz-adv-x="1296" d="M90 0v213l789 913h-773v226h1084v-213l-789 -914h813v-225h-1124z" />
<glyph unicode="[" horiz-adv-x="768" d="M176 -344v1817h535v-207h-289v-1403h289v-207h-535z" />
<glyph unicode="\" horiz-adv-x="935" d="M41 1473h262l592 -1616h-260z" />
<glyph unicode="]" horiz-adv-x="768" d="M57 -137h289v1403h-289v207h537v-1817h-537v207z" />
<glyph unicode="^" horiz-adv-x="1214" d="M51 727l434 760h244l434 -760h-256l-299 569l-301 -569h-256z" />
<glyph unicode="_" horiz-adv-x="1103" d="M0 -158h1104v-231h-1104v231z" />
<glyph unicode="`" horiz-adv-x="1024" d="M217 1520h270l144 -349h-209z" />
<glyph unicode="a" horiz-adv-x="1175" d="M84 242q0 250 399 323l246 47v50q0 82 -46 130t-128 48q-94 0 -153.5 -41t-82.5 -133l-223 94q33 133 147.5 208.5t299.5 75.5q219 0 342 -95t123 -281v-420q0 -41 18 -59.5t57 -18.5q43 0 70 8l-20 -170q-55 -28 -129 -28h-5q-197 0 -235 153q-45 -76 -139.5 -114.5 t-223.5 -38.5q-150 0 -233.5 67.5t-83.5 194.5zM373 270q0 -49 30.5 -74.5t85.5 -25.5q91 0 165.5 44t74.5 120v106l-219 -49q-70 -16 -103.5 -44t-33.5 -77z" />
<glyph unicode="b" horiz-adv-x="1288" d="M147 0v1473h281v-617q47 88 129 138t193 50q204 0 321 -141t117 -393q0 -250 -117 -390t-321 -140q-121 0 -210 60t-134 163l-11 -203h-248zM428 467q8 -131 71.5 -201.5t166.5 -70.5q114 0 177.5 81.5t63.5 235.5t-63.5 235.5t-177.5 81.5q-102 0 -166 -71.5t-72 -200.5 v-90z" />
<glyph unicode="c" horiz-adv-x="1165" d="M94 512q0 252 138.5 392t383.5 140q203 0 315.5 -81.5t153.5 -219.5l-262 -94q-37 186 -198 187q-121 0 -185.5 -83t-64.5 -243t65.5 -241t182.5 -81q180 0 213 183l254 -82q-33 -141 -153 -225t-310 -84q-254 0 -393.5 140t-139.5 392z" />
<glyph unicode="d" horiz-adv-x="1288" d="M100 510q0 252 117 393t322 141q111 0 192.5 -50t126.5 -138v617h281v-1473h-250l-12 190q-45 -96 -134.5 -153t-203.5 -57q-205 0 -322 140t-117 390zM381 512q0 -154 63.5 -235.5t176.5 -81.5q110 0 173.5 79.5t63.5 227.5v20q0 145 -63.5 226t-173.5 81 q-113 0 -176.5 -81.5t-63.5 -235.5z" />
<glyph unicode="e" horiz-adv-x="1191" d="M94 512q0 252 135.5 392t380.5 140q238 0 366 -137t128 -391q0 -57 -8 -110h-725q43 -217 256 -218q88 0 145 33t80 94l229 -84q-49 -123 -164.5 -187t-289.5 -64q-254 0 -393.5 140t-139.5 392zM369 602h477q-16 115 -77.5 175.5t-160.5 60.5q-102 0 -162.5 -59.5 t-76.5 -176.5z" />
<glyph unicode="f" horiz-adv-x="833" d="M43 815v209h178v123q0 168 104.5 257t282.5 89q68 0 124 -14.5t89 -38.5l-39 -187q-47 31 -116 31q-176 0 -177 -158v-102h324v-209h-311v-815h-281v815h-178z" />
<glyph unicode="g" horiz-adv-x="1146" d="M66 -188q0 70 47 121t139 73q-70 29 -111 81t-41 124q0 74 43 127t119 80q-78 45 -119 115.5t-41 162.5q0 162 126 255t343 93q111 0 207 -26q27 121 104 190q68 61 181 61q13 0 27 -1l36 -201q-14 2 -43 2q-76 0 -126 -26.5t-70 -71.5q76 -45 115.5 -115t39.5 -160 q0 -160 -125.5 -253t-345.5 -93q-100 0 -184 19q-80 -20 -80 -93q0 -41 31 -62t86 -21h346q168 0 259 -74t91 -211q0 -164 -151.5 -256t-399.5 -92q-256 0 -379.5 67.5t-123.5 184.5zM289 -127q0 -57 75.5 -89t227.5 -32q143 0 221 36t78 91q0 43 -36 64.5t-118 21.5h-278 q-170 0 -170 -92zM385 698q0 -78 52 -125t134 -47q84 0 136.5 47.5t52.5 124.5q0 76 -52.5 123t-136.5 47q-82 0 -134 -47t-52 -123z" />
<glyph unicode="h" horiz-adv-x="1267" d="M147 0v1473h281v-623q47 98 132 146t198 48q166 0 267 -96t101 -276v-672h-280v590q0 233 -182 233q-98 0 -167 -69.5t-69 -212.5v-541h-281z" />
<glyph unicode="i" horiz-adv-x="577" d="M115 1321q0 152 174 152t174 -152q0 -150 -174 -150t-174 150zM147 0v1024h281v-1024h-281z" />
<glyph unicode="j" horiz-adv-x="575" d="M-182 -375l45 201q55 -49 143 -49q70 0 105.5 41t35.5 133v1073h281v-1100q0 -190 -98.5 -277t-266.5 -87q-147 0 -245 65zM115 1321q0 72 45 112t129 40t129 -40t45 -112t-45 -111t-129 -39t-129 39t-45 111z" />
<glyph unicode="k" horiz-adv-x="1232" d="M147 0v1473h281v-916l444 467h318l-385 -401l409 -623h-317l-283 453l-186 -199v-254h-281z" />
<glyph unicode="l" horiz-adv-x="653" d="M143 285v1188h281v-1147q0 -74 21.5 -102.5t78.5 -28.5q35 0 60.5 5t60.5 17l-24 -194q-33 -20 -86.5 -31.5t-104.5 -11.5q-150 0 -218.5 72.5t-68.5 232.5z" />
<glyph unicode="m" horiz-adv-x="1935" d="M147 0v1024h252l9 -182q51 100 140 151t200 51q115 0 203.5 -53t129.5 -153q49 100 143.5 153t205.5 53q157 0 260.5 -96t103.5 -276v-672h-281v616q0 106 -47 156.5t-129 50.5q-98 0 -161.5 -71.5t-63.5 -200.5v-551h-281v616q0 106 -47 156.5t-131 50.5 q-92 0 -158.5 -70.5t-66.5 -209.5v-543h-281z" />
<glyph unicode="n" horiz-adv-x="1267" d="M147 0v1024h252l9 -182q51 100 141 151t209 51q166 0 267 -96t101 -276v-672h-280v590q0 233 -182 233q-98 0 -167 -69.5t-69 -212.5v-541h-281z" />
<glyph unicode="o" d="M94 512q0 250 138.5 391t385.5 141q248 0 386.5 -141t138.5 -391t-138.5 -391t-386.5 -141t-386 141t-138 391zM375 512q0 -162 62.5 -243t180.5 -81q119 0 181.5 81t62.5 243t-62.5 243t-181.5 81q-118 0 -180.5 -81t-62.5 -243z" />
<glyph unicode="p" horiz-adv-x="1288" d="M147 -430v1454h248l11 -203q45 102 134 162.5t210 60.5q204 0 321 -140t117 -390q0 -252 -117 -393t-321 -141q-111 0 -193 50t-129 138v-598h-281zM428 467q8 -129 71.5 -200.5t166.5 -71.5q114 0 177.5 81.5t63.5 235.5t-63.5 235.5t-177.5 81.5q-102 0 -166 -70.5 t-72 -201.5v-90z" />
<glyph unicode="q" horiz-adv-x="1288" d="M100 514q0 250 117 390t322 140q119 0 209 -60t135 -161l12 201h246v-1454h-281v600q-45 -88 -128 -139t-191 -51q-205 0 -323 141t-118 393zM383 512q0 -156 63.5 -236.5t176.5 -80.5q110 0 173.5 80.5t63.5 226.5v20q0 147 -63.5 227t-173.5 80q-113 0 -176.5 -80.5 t-63.5 -236.5z" />
<glyph unicode="r" horiz-adv-x="864" d="M147 0v1024h244l19 -201q84 221 317 221h6q68 0 105 -22l-35 -246q-47 31 -129 31q-100 0 -173 -72.5t-73 -204.5v-530h-281z" />
<glyph unicode="s" horiz-adv-x="1087" d="M70 176l163 168q41 -88 118 -124t190 -36q90 0 139 24.5t49 67.5q0 35 -46 59.5t-159 47.5q-236 47 -331 124t-95 208q0 86 53.5 161.5t158 121.5t249.5 46q172 0 278.5 -52t178.5 -165l-174 -147q-45 82 -111.5 121t-167.5 39q-84 0 -134 -29t-50 -70q0 -43 49 -71.5 t174 -53.5q223 -45 316.5 -117.5t93.5 -201.5q0 -143 -122 -230t-345 -87h-3q-340 0 -472 196z" />
<glyph unicode="t" horiz-adv-x="878" d="M41 815v209h186v236l281 77v-313h332v-209h-332v-481q0 -141 141 -141q90 0 158 57l43 -187q-49 -39 -124 -61t-157 -22q-342 0 -342 309v526h-186z" />
<glyph unicode="u" horiz-adv-x="1267" d="M141 346v678h281v-606q0 -119 45 -168t133 -49q106 0 173 68.5t67 205.5v549h280v-1024h-250l-10 176q-98 -196 -355 -196h-3q-166 0 -263.5 89t-97.5 277z" />
<glyph unicode="v" horiz-adv-x="1118" d="M8 1024h301l252 -827l258 827h291l-389 -1024h-324z" />
<glyph unicode="w" horiz-adv-x="1820" d="M41 1024h297l205 -799l229 799h277l229 -799l205 799h297l-326 -1024h-326l-223 723l-215 -723h-323z" />
<glyph unicode="x" horiz-adv-x="1165" d="M29 0l377 518l-359 506h324l219 -358l219 358h315l-362 -506l368 -518h-321l-231 373l-236 -373h-313z" />
<glyph unicode="y" horiz-adv-x="1140" d="M14 -360l70 198q33 -37 73 -50t99 -13q63 0 102 26.5t66 96.5l37 88l-113 266l-313 772h311l193 -614l55 -205l61 217l189 602h284l-413 -1087q-76 -209 -175.5 -293t-265.5 -84t-260 80z" />
<glyph unicode="z" horiz-adv-x="1069" d="M90 0v180l453 525l116 116l-170 -4h-395v207h877v-180l-453 -522l-117 -119l189 4h399v-207h-899z" />
<glyph unicode="{" horiz-adv-x="808" d="M74 467v195q125 0 177 49t52 163v332q0 164 98.5 239t327.5 75l16 -191q-111 0 -159.5 -33.5t-48.5 -111.5v-361q0 -104 -54.5 -166.5t-163.5 -93.5q109 -29 163.5 -91t54.5 -167v-360q0 -78 49 -112t159 -34l-16 -190q-229 0 -327.5 74.5t-98.5 240.5v330q0 115 -52 164 t-177 49z" />
<glyph unicode="|" horiz-adv-x="598" d="M176 -344v1817h246v-1817h-246z" />
<glyph unicode="}" horiz-adv-x="808" d="M61 -201q113 0 162 34t49 112v360q0 104 54.5 167t162.5 93q-109 29 -163 91.5t-54 166.5v361q0 78 -49 111.5t-162 33.5l17 191q229 0 327.5 -74t98.5 -240v-332q0 -114 52 -163t177 -49v-195q-125 0 -177 -49t-52 -164v-330q0 -166 -97.5 -240.5t-328.5 -74.5z" />
<glyph unicode="~" horiz-adv-x="1179" d="M88 481q23 365 307 365q70 0 120 -21.5t110 -62.5q41 -29 70.5 -42t60.5 -13q88 0 106 133h230q-11 -178 -87.5 -271.5t-218.5 -93.5q-72 0 -122 21.5t-109 62.5q-43 29 -70.5 42t-58.5 13q-90 0 -109 -133h-229z" />
<glyph unicode="&#xa1;" horiz-adv-x="585" d="M119 885q0 72 47 114.5t127 42.5t127 -43t47 -114q0 -72 -47 -115t-127 -43t-127 43t-47 115zM145 164l35 424h226l34 -424v-492h-295v492z" />
<glyph unicode="&#xa2;" horiz-adv-x="1171" d="M109 512q0 227 114.5 365.5t323.5 162.5v189h164v-189q166 -14 260 -93t125 -204l-224 -88q-33 154 -161 193v-674q137 35 174 191l215 -74q-23 -131 -124.5 -212t-264.5 -95v-189h-164v191q-211 25 -324.5 162t-113.5 364zM358 510q1 -281 189 -332v668 q-188 -49 -189 -336z" />
<glyph unicode="&#xa3;" horiz-adv-x="1277" d="M82 164q0 84 70.5 136t181.5 52q102 0 188 -30v20q0 100 -57 199h-332v178h203q-53 74 -73.5 130t-20.5 118q0 113 56 205t162.5 146t248.5 54q375 0 456 -344l-231 -110q-31 125 -84 182t-150 57q-96 0 -153.5 -50t-57.5 -134q0 -47 21.5 -96.5t79.5 -133.5l18 -24h393 v-178h-301q20 -68 21 -144q0 -82 -29 -161q51 -29 95 -44.5t96 -15.5q78 0 113.5 44t33.5 138l180 -16q4 -37 4 -55q0 -137 -74.5 -222t-207.5 -85q-90 0 -163 31.5t-159 88.5q-115 -121 -288 -120q-106 0 -173 50t-67 134zM246 166q0 -31 24.5 -47.5t63.5 -16.5 q102 0 151 78q-82 43 -151 43q-43 0 -65.5 -15t-22.5 -42z" />
<glyph unicode="&#xa4;" horiz-adv-x="1337" d="M100 270l191 179q-57 102 -58 225q0 125 60 227l-193 176l164 166l182 -194q96 53 224 53q121 0 225 -55l176 196l168 -166l-192 -180q57 -98 57 -223q-1 -128 -60 -228l195 -176l-168 -166l-180 195q-96 -53 -221 -53t-226 55l-180 -197zM463 674q0 -96 58.5 -156.5 t148.5 -60.5t147 60.5t57 156.5t-57 156.5t-147 60.5t-148.5 -60.5t-58.5 -156.5z" />
<glyph unicode="&#xa5;" horiz-adv-x="1345" d="M51 1352h297l230 -451l94 -207h4l92 209l229 449h297l-456 -742l110 8h252v-122h-395v-142h395v-116h-395v-238h-264v238h-394v116h394v142h-394v122h250l111 -8z" />
<glyph unicode="&#xa6;" horiz-adv-x="544" d="M150 -344v766h245v-766h-245zM150 707v766h245v-766h-245z" />
<glyph unicode="&#xa7;" horiz-adv-x="1257" d="M55 573q0 182 164 289q-41 68 -41 166q0 100 56.5 178t161 122t247.5 44q172 0 275.5 -51t179.5 -150l-154 -141q-55 76 -122.5 111t-178.5 35q-117 0 -179.5 -33t-62.5 -90q0 -68 68 -103t242 -55q266 -29 380.5 -107.5t114.5 -224.5q0 -180 -164 -291q41 -63 41 -163 q0 -152 -122.5 -243t-333.5 -91q-168 0 -276.5 50t-186.5 150l158 142q49 -76 119.5 -111t183.5 -35q115 0 175 29t60 84q0 66 -67.5 101.5t-241.5 56.5q-266 29 -381 107.5t-115 223.5zM272 610q0 -63 67 -96t236 -51q195 -23 306 -66q109 49 108 129q0 63 -66.5 96 t-236.5 52q-188 18 -305 65q-109 -49 -109 -129z" />
<glyph unicode="&#xa8;" horiz-adv-x="1024" d="M147 1300q0 66 41 105t111 39q72 0 113 -39t41 -105t-41 -104.5t-113 -38.5q-70 0 -111 39t-41 104zM578 1300q0 66 40.5 105t110.5 39q72 0 114 -39t42 -105t-42 -104.5t-114 -38.5q-70 0 -110.5 39t-40.5 104z" />
<glyph unicode="&#xa9;" horiz-adv-x="1617" d="M104 676q0 209 87.5 366.5t246 243.5t371.5 86q211 0 369.5 -86t245.5 -243.5t87 -366.5t-87 -366.5t-245.5 -243.5t-369.5 -86q-213 0 -371.5 86t-246 243.5t-87.5 366.5zM274 676q0 -162 66 -284t186.5 -188.5t282.5 -66.5q160 0 280.5 66.5t187 188.5t66.5 284 t-66.5 283.5t-187 188t-280.5 66.5q-162 0 -282.5 -66.5t-186.5 -188t-66 -283.5zM440 674q0 178 99.5 282.5t269.5 104.5q270 0 350 -215l-168 -84q-23 53 -62.5 77.5t-107.5 24.5q-84 0 -130 -50t-46 -140q0 -92 47 -142.5t131 -50.5q70 0 113 25.5t65 83.5l160 -74 q-45 -119 -128 -174t-224 -55q-170 0 -269.5 104.5t-99.5 282.5z" />
<glyph unicode="&#xaa;" horiz-adv-x="856" d="M45 813q0 88 64.5 142.5t207.5 80.5l175 33v27q0 53 -31 81.5t-88 28.5t-95 -24.5t-55 -85.5l-168 53q18 98 102.5 153.5t225.5 55.5q324 0 324 -264v-254q0 -61 57 -62q31 0 45 6l-16 -118q-41 -23 -101 -23q-63 0 -106 27.5t-58 81.5q-35 -51 -101.5 -80t-156.5 -29 q-109 0 -167 44t-58 126zM63 346v156h715v-156h-715zM254 846q0 -66 92 -66q57 0 101.5 31t44.5 82v76l-109 -25q-68 -14 -98.5 -36.5t-30.5 -61.5z" />
<glyph unicode="&#xab;" horiz-adv-x="1130" d="M84 543l256 401h258l-254 -401l254 -402h-258zM530 543l256 401h258l-254 -401l254 -402h-258z" />
<glyph unicode="&#xac;" d="M121 553v213h995v-541h-237v328h-758z" />
<glyph unicode="&#xad;" horiz-adv-x="1067" d="M172 422v242h723v-242h-723z" />
<glyph unicode="&#xae;" horiz-adv-x="1617" d="M104 676q0 209 87.5 366.5t246 243.5t371.5 86q211 0 369.5 -86t245.5 -243.5t87 -366.5t-87 -366.5t-245.5 -243.5t-369.5 -86q-213 0 -371.5 86t-246 243.5t-87.5 366.5zM274 676q0 -162 66 -284t186.5 -188.5t282.5 -66.5q160 0 280.5 66.5t187 188.5t66.5 284 t-66.5 283.5t-187 188t-280.5 66.5q-162 0 -282.5 -66.5t-186.5 -188t-66 -283.5zM526 303v752h342q121 0 198 -67.5t77 -178.5q0 -84 -44 -142.5t-126 -82.5l188 -281h-215l-151 262h-86v-262h-183zM709 694h127q123 0 122 107q0 106 -122 106h-127v-213z" />
<glyph unicode="&#xaf;" horiz-adv-x="1024" d="M139 1186v186h746v-186h-746z" />
<glyph unicode="&#xb0;" horiz-adv-x="987" d="M104 1008q0 164 107.5 264t282.5 100q176 0 283.5 -100.5t107.5 -263.5q0 -164 -107.5 -265.5t-283.5 -101.5q-175 0 -282.5 101.5t-107.5 265.5zM317 1008q0 -76 50.5 -126.5t126.5 -50.5q77 0 127.5 49.5t50.5 127.5t-50.5 127t-127.5 49q-76 0 -126.5 -49.5 t-50.5 -126.5z" />
<glyph unicode="&#xb1;" d="M111 0v205h1015v-205h-1015zM111 735v209h401v383h215v-383h399v-209h-399v-379h-215v379h-401z" />
<glyph unicode="&#xb2;" horiz-adv-x="782" d="M41 1229q4 131 96 203.5t246 72.5q166 0 251 -77.5t85 -186.5q0 -82 -57.5 -159.5t-178.5 -159.5q-55 -39 -139 -76v-2q111 6 168 6h219v-168h-663v137q135 82 184 117q135 98 189.5 162.5t54.5 126.5q0 51 -31 82.5t-88 31.5q-63 0 -98 -44t-37 -126z" />
<glyph unicode="&#xb3;" horiz-adv-x="763" d="M31 872l198 78q12 -121 142 -121q57 0 90 28t33 77q0 88 -123 88h-47v121h38q55 0 85 25.5t30 72.5q0 98 -108 98q-51 0 -84 -27.5t-41 -82.5l-193 63q23 106 111 159.5t217 53.5q149 0 230 -60.5t81 -166.5q0 -82 -49 -132t-119 -54v-7q80 0 132.5 -47t52.5 -131 q0 -106 -89.5 -171.5t-234.5 -65.5q-143 0 -230 49t-122 153z" />
<glyph unicode="&#xb4;" horiz-adv-x="1024" d="M393 1171l144 349h270l-205 -349h-209z" />
<glyph unicode="&#xb5;" horiz-adv-x="1259" d="M141 -430v1454h281v-606q0 -119 44 -168t134 -49q102 0 164.5 57t75.5 162v604h280v-1024h-243l-13 182q-92 -203 -336 -202q-53 0 -106 16v-426h-281z" />
<glyph unicode="&#xb6;" horiz-adv-x="1437" d="M76 915q0 211 139 324t410 113h659v-1557h-231v1338h-238v-1338h-233v686q-242 2 -374 115t-132 319z" />
<glyph unicode="&#xb7;" horiz-adv-x="524" d="M84 725q0 78 48 122t130 44t130 -44t48 -122t-48 -122t-130 -44t-130 44t-48 122z" />
<glyph unicode="&#xb8;" horiz-adv-x="1024" d="M270 -362l74 145q27 -29 64.5 -45.5t80.5 -16.5q49 0 81 30t32 79q0 59 -45 98t-168 78l86 64q150 -29 230.5 -105t80.5 -172q0 -109 -74.5 -171t-197.5 -62q-160 0 -244 78z" />
<glyph unicode="&#xb9;" horiz-adv-x="567" d="M33 1182v176q63 10 145 52t115 85h182v-813h-213v469q0 57 6 137q-117 -94 -235 -106z" />
<glyph unicode="&#xba;" horiz-adv-x="819" d="M55 999q0 170 93.5 264.5t261.5 94.5t260 -94.5t92 -264.5q0 -168 -92 -262t-260 -94t-261.5 94t-93.5 262zM74 346v156h671v-156h-671zM272 999q0 -104 34 -156t104 -52q69 0 103 52t34 156q0 213 -137 213t-138 -213z" />
<glyph unicode="&#xbb;" horiz-adv-x="1128" d="M82 141l254 402l-254 401h258l256 -401l-256 -402h-258zM530 141l254 402l-254 401h258l256 -401l-256 -402h-258z" />
<glyph unicode="&#xbc;" horiz-adv-x="1738" d="M33 1049v176q63 10 145 52t115 85h182v-813h-213v469q0 57 6 137q-117 -94 -235 -106zM235 0l977 1352h213l-975 -1352h-215zM978 176v100l347 529h247v-486h131v-143h-131v-184h-184v184h-410zM1167 319h221v187q0 39 4 112l2 50h-6q-23 -57 -63 -119z" />
<glyph unicode="&#xbd;" horiz-adv-x="1878" d="M33 1049v176q63 10 145 52t115 85h182v-813h-213v469q0 57 6 137q-117 -94 -235 -106zM235 0l977 1352h213l-975 -1352h-215zM1137 539q4 131 96 203.5t246 72.5q166 0 251 -78t85 -186q0 -82 -57.5 -160t-178.5 -160q-55 -39 -139 -75v-2q111 6 168 6h219v-168h-663v137 q135 82 184 117q135 98 189.5 162.5t54.5 126.5q0 51 -31 82.5t-88 31.5q-63 0 -98 -44t-37 -126z" />
<glyph unicode="&#xbe;" horiz-adv-x="1935" d="M29 739l200 78q12 -121 142 -121q57 0 90 28t33 77q0 88 -123 88h-47v121h38q55 0 85 25.5t30 72.5q0 98 -108 98q-51 0 -84 -27.5t-41 -82.5l-193 63q23 106 111 159.5t217 53.5q149 0 230 -60.5t81 -166.5q0 -82 -49 -132t-119 -55v-6q80 0 132.5 -47t52.5 -131 q0 -106 -89.5 -171.5t-234.5 -65.5q-143 0 -230 48t-124 154zM432 0l977 1352h213l-975 -1352h-215zM1173 176v100l347 529h247v-486h131v-143h-131v-184h-184v184h-410zM1362 319h221v187q0 39 4 112l2 50h-6q-23 -57 -63 -119z" />
<glyph unicode="&#xbf;" horiz-adv-x="1187" d="M88 16q0 178 105.5 271.5t283.5 111.5l12 193h252l13 -311q-197 -20 -281 -73.5t-84 -152.5q0 -80 54.5 -124t162.5 -44q106 0 172 61.5t76 172.5l266 -113q-27 -162 -162 -259t-370 -97q-228 0 -364 93t-136 271zM440 883q0 74 47.5 116.5t128.5 42.5q82 0 128.5 -43 t46.5 -116q0 -74 -46.5 -117t-128.5 -43q-81 0 -128.5 43t-47.5 117z" />
<glyph unicode="&#xc0;" horiz-adv-x="1374" d="M25 0l493 1352h338l494 -1352h-293l-113 330h-520l-111 -330h-288zM391 1812h279l114 -317h-211zM494 539h380l-126 381l-62 204h-4l-57 -200z" />
<glyph unicode="&#xc1;" horiz-adv-x="1374" d="M25 0l493 1352h338l494 -1352h-293l-113 330h-520l-111 -330h-288zM494 539h380l-126 381l-62 204h-4l-57 -200zM561 1495l115 317h278l-182 -317h-211z" />
<glyph unicode="&#xc2;" horiz-adv-x="1374" d="M25 0l493 1352h338l494 -1352h-293l-113 330h-520l-111 -330h-288zM317 1487l228 342h282l228 -342h-217l-152 201l-151 -201h-218zM494 539h380l-126 381l-62 204h-4l-57 -200z" />
<glyph unicode="&#xc3;" horiz-adv-x="1374" d="M25 0l493 1352h338l494 -1352h-293l-113 330h-520l-111 -330h-288zM293 1491q16 307 258 307q59 0 98 -20t82 -57q31 -25 49.5 -36t40.5 -11q37 0 57.5 30.5t28.5 93.5h172q-8 -153 -72.5 -230t-183.5 -77q-59 0 -99 20.5t-83 57.5q-29 25 -48.5 36t-41.5 11 q-37 0 -57.5 -30.5t-28.5 -94.5h-172zM494 539h380l-126 381l-62 204h-4l-57 -200z" />
<glyph unicode="&#xc4;" horiz-adv-x="1374" d="M25 0l493 1352h338l494 -1352h-293l-113 330h-520l-111 -330h-288zM317 1628q0 66 41 105t111 39q72 0 113 -39t41 -105t-41 -104.5t-113 -38.5q-70 0 -111 39t-41 104zM494 539h380l-126 381l-62 204h-4l-57 -200zM748 1628q0 66 40.5 105t110.5 39q72 0 114 -39 t42 -105t-42 -104.5t-114 -38.5q-70 0 -110.5 39t-40.5 104z" />
<glyph unicode="&#xc5;" horiz-adv-x="1374" d="M25 0l481 1298q-51 31 -79 82.5t-28 118.5q0 117 79 187.5t210 70.5q133 0 211 -70.5t78 -187.5q0 -66 -28.5 -118t-80.5 -83l482 -1298h-293l-113 330h-520l-111 -330h-288zM494 539h380l-126 381l-60 204h-6l-57 -200zM559 1493q0 -55 36 -90t93 -35t93 35t36 90 t-36 90t-93 35t-93 -35t-36 -90z" />
<glyph unicode="&#xc6;" horiz-adv-x="1914" d="M0 0l657 1352h1151v-222h-655v-344h500v-211h-500v-354h684v-221h-952v414h-410l-186 -414h-289zM567 616h318v521h-82z" />
<glyph unicode="&#xc7;" horiz-adv-x="1398" d="M109 676q0 215 78.5 371.5t225 240.5t343.5 84q211 0 357.5 -88t201.5 -262l-256 -109q-33 121 -102.5 174.5t-188.5 53.5q-172 0 -269.5 -121t-97.5 -344t94.5 -344t266.5 -121q248 0 311 240l260 -78q-49 -160 -161.5 -256.5t-272.5 -124.5q55 -39 84 -90.5t29 -108.5 q0 -109 -75 -171t-198 -62q-160 0 -243 78l73 145q27 -29 65 -45.5t81 -16.5q49 0 80.5 30t31.5 79q0 51 -30.5 86t-114.5 68q-268 23 -420.5 206t-152.5 486z" />
<glyph unicode="&#xc8;" horiz-adv-x="1296" d="M176 0v1352h1014v-228h-731v-336h575v-217h-575v-344h760v-227h-1043zM422 1812h278l115 -317h-211z" />
<glyph unicode="&#xc9;" horiz-adv-x="1296" d="M176 0v1352h1014v-228h-731v-336h575v-217h-575v-344h760v-227h-1043zM549 1495l115 317h278l-182 -317h-211z" />
<glyph unicode="&#xca;" horiz-adv-x="1296" d="M176 0v1352h1014v-228h-731v-336h575v-217h-575v-344h760v-227h-1043zM305 1487l227 342h283l227 -342h-217l-151 201l-152 -201h-217z" />
<glyph unicode="&#xcb;" horiz-adv-x="1296" d="M176 0v1352h1014v-228h-731v-336h575v-217h-575v-344h760v-227h-1043zM305 1628q0 66 41 105t111 39q72 0 113 -39t41 -105t-41 -104.5t-113 -38.5q-70 0 -111 39t-41 104zM736 1628q0 66 40.5 105t110.5 39q72 0 114 -39t42 -105t-42 -104.5t-114 -38.5q-70 0 -110.5 39 t-40.5 104z" />
<glyph unicode="&#xcc;" horiz-adv-x="634" d="M23 1812h278l115 -317h-211zM176 0v1352h283v-1352h-283z" />
<glyph unicode="&#xcd;" horiz-adv-x="634" d="M176 0v1352h283v-1352h-283zM193 1495l114 317h279l-183 -317h-210z" />
<glyph unicode="&#xce;" horiz-adv-x="634" d="M-51 1487l227 342h283l227 -342h-217l-152 201l-151 -201h-217zM176 0v1352h283v-1352h-283z" />
<glyph unicode="&#xcf;" horiz-adv-x="634" d="M-29 1628q0 66 40 105t108 39q69 0 110 -39t41 -105t-41 -104.5t-110 -38.5q-68 0 -108 39t-40 104zM176 0v1352h283v-1352h-283zM365 1628q0 66 39.5 105t107.5 39q70 0 111 -39t41 -105t-41 -104.5t-111 -38.5q-68 0 -107.5 39t-39.5 104z" />
<glyph unicode="&#xd0;" horiz-adv-x="1515" d="M37 582v192h182v578h522q318 0 491 -176.5t173 -499.5q0 -324 -173 -500t-491 -176h-522v582h-182zM502 225h223q193 0 291 116t98 335t-98 334.5t-291 115.5h-223v-352h315v-192h-315v-357z" />
<glyph unicode="&#xd1;" horiz-adv-x="1513" d="M176 0v1352h322l473 -793l116 -229h5l-9 239v783h254v-1352h-323l-473 795l-117 227h-2l8 -240v-782h-254zM367 1491q16 307 258 307q59 0 98 -20t82 -57q31 -25 49.5 -36t40.5 -11q37 0 57.5 30.5t28.5 93.5h172q-8 -153 -72.5 -230t-183.5 -77q-59 0 -99 20.5t-83 57.5 q-29 25 -48.5 36t-41.5 11q-37 0 -57.5 -30.5t-28.5 -94.5h-172z" />
<glyph unicode="&#xd2;" horiz-adv-x="1517" d="M109 676q0 215 78.5 371.5t226 240.5t346.5 84q198 0 344.5 -84t225.5 -240.5t79 -371.5t-79 -372t-225.5 -240.5t-344.5 -83.5q-199 0 -346.5 83.5t-226 240.5t-78.5 372zM401 676q0 -225 93.5 -345t265.5 -120q170 0 263 120t93 345t-93 345t-263 120 q-172 0 -265.5 -120t-93.5 -345zM465 1812h278l115 -317h-211z" />
<glyph unicode="&#xd3;" horiz-adv-x="1517" d="M109 676q0 215 78.5 371.5t226 240.5t346.5 84q198 0 344.5 -84t225.5 -240.5t79 -371.5t-79 -372t-225.5 -240.5t-344.5 -83.5q-199 0 -346.5 83.5t-226 240.5t-78.5 372zM401 676q0 -225 93.5 -345t265.5 -120q170 0 263 120t93 345t-93 345t-263 120 q-172 0 -265.5 -120t-93.5 -345zM635 1495l115 317h278l-182 -317h-211z" />
<glyph unicode="&#xd4;" horiz-adv-x="1517" d="M109 676q0 215 78.5 371.5t226 240.5t346.5 84q198 0 344.5 -84t225.5 -240.5t79 -371.5t-79 -372t-225.5 -240.5t-344.5 -83.5q-199 0 -346.5 83.5t-226 240.5t-78.5 372zM391 1487l227 342h283l227 -342h-217l-151 201l-152 -201h-217zM401 676q0 -225 93.5 -345 t265.5 -120q170 0 263 120t93 345t-93 345t-263 120q-172 0 -265.5 -120t-93.5 -345z" />
<glyph unicode="&#xd5;" horiz-adv-x="1517" d="M109 676q0 215 78.5 371.5t226 240.5t346.5 84q198 0 344.5 -84t225.5 -240.5t79 -371.5t-79 -372t-225.5 -240.5t-344.5 -83.5q-199 0 -346.5 83.5t-226 240.5t-78.5 372zM365 1491q16 307 258 307q59 0 98 -20t82 -57q31 -25 49.5 -36t40.5 -11q37 0 57.5 30.5 t28.5 93.5h172q-8 -153 -72.5 -230t-183.5 -77q-59 0 -99 20.5t-83 57.5q-29 25 -48.5 36t-41.5 11q-37 0 -57.5 -30.5t-28.5 -94.5h-172zM401 676q0 -225 93.5 -345t265.5 -120q170 0 263 120t93 345t-93 345t-263 120q-172 0 -265.5 -120t-93.5 -345z" />
<glyph unicode="&#xd6;" horiz-adv-x="1517" d="M109 676q0 215 78.5 371.5t226 240.5t346.5 84q198 0 344.5 -84t225.5 -240.5t79 -371.5t-79 -372t-225.5 -240.5t-344.5 -83.5q-199 0 -346.5 83.5t-226 240.5t-78.5 372zM391 1628q0 66 41 105t111 39q72 0 113 -39t41 -105t-41 -104.5t-113 -38.5q-70 0 -111 39 t-41 104zM401 676q0 -225 93.5 -345t265.5 -120q170 0 263 120t93 345t-93 345t-263 120q-172 0 -265.5 -120t-93.5 -345zM822 1628q0 66 40.5 105t110.5 39q72 0 114 -39t42 -105t-42 -104.5t-114 -38.5q-70 0 -110.5 39t-40.5 104z" />
<glyph unicode="&#xd7;" d="M131 334l328 328l-328 327l160 160l327 -328l328 328l158 -160l-328 -327l328 -328l-158 -160l-328 328l-327 -328z" />
<glyph unicode="&#xd8;" horiz-adv-x="1517" d="M109 676q0 215 78.5 371.5t226 240.5t346.5 84q209 0 360 -92l84 117h164l-143 -201q90 -90 137 -222t47 -298q0 -215 -79 -372t-225.5 -240.5t-344.5 -83.5q-205 0 -352 88l-95 -131h-163l149 210q-92 92 -141 226.5t-49 302.5zM401 676q0 -193 68 -307l498 708 q-86 63 -207 64q-172 0 -265.5 -120t-93.5 -345zM563 266q80 -55 197 -55q170 0 263 120t93 345q0 178 -59 293z" />
<glyph unicode="&#xd9;" horiz-adv-x="1464" d="M156 532v820h282v-807q0 -170 73 -252t222 -82q150 0 221.5 82t71.5 252v807h285v-820q0 -274 -146.5 -413t-431.5 -139t-431 139t-146 413zM438 1812h279l114 -317h-210z" />
<glyph unicode="&#xda;" horiz-adv-x="1464" d="M156 532v820h282v-807q0 -170 73 -252t222 -82q150 0 221.5 82t71.5 252v807h285v-820q0 -274 -146.5 -413t-431.5 -139t-431 139t-146 413zM608 1495l115 317h278l-182 -317h-211z" />
<glyph unicode="&#xdb;" horiz-adv-x="1464" d="M156 532v820h282v-807q0 -170 73 -252t222 -82q150 0 221.5 82t71.5 252v807h285v-820q0 -274 -146.5 -413t-431.5 -139t-431 139t-146 413zM365 1487l227 342h282l228 -342h-217l-152 201l-151 -201h-217z" />
<glyph unicode="&#xdc;" horiz-adv-x="1464" d="M156 532v820h282v-807q0 -170 73 -252t222 -82q150 0 221.5 82t71.5 252v807h285v-820q0 -274 -146.5 -413t-431.5 -139t-431 139t-146 413zM364 1628q0 66 41 105t111 39q72 0 113 -39t41 -105t-41 -104.5t-113 -38.5q-70 0 -111 39t-41 104zM795 1628q0 66 40.5 105 t110.5 39q72 0 114 -39t42 -105t-42 -104.5t-114 -38.5q-70 0 -110.5 39t-40.5 104z" />
<glyph unicode="&#xdd;" horiz-adv-x="1282" d="M20 1352h302l217 -404l102 -213l104 213l218 404h299l-480 -846v-506h-282v506zM516 1495l115 317h278l-182 -317h-211z" />
<glyph unicode="&#xde;" horiz-adv-x="1335" d="M176 0v1352h283v-219h262q256 0 390 -113t132 -330q2 -215 -132 -328.5t-390 -113.5h-262v-248h-283zM459 471h241q129 0 192.5 54.5t63.5 164.5q0 111 -63.5 165t-192.5 54h-241v-438z" />
<glyph unicode="&#xdf;" horiz-adv-x="1304" d="M147 0v971q0 246 127 379t416 133q162 0 270.5 -54.5t162 -143.5t53.5 -193q0 -80 -38 -154t-113 -121t-183 -47v-4q123 0 207 -52t126 -139.5t42 -187.5q0 -109 -50.5 -202t-153 -149t-249.5 -56q-74 0 -137.5 18t-102.5 49l54 195q55 -49 151 -49q102 0 159.5 63 t57.5 168q0 109 -69.5 166t-200.5 57h-92l22 213h70q104 0 163.5 58.5t59.5 150.5q0 96 -56.5 146.5t-162.5 50.5q-139 0 -195.5 -79t-56.5 -251v-936h-281z" />
<glyph unicode="&#xe0;" horiz-adv-x="1175" d="M84 242q0 250 399 323l246 47v50q0 82 -46 130t-128 48q-94 0 -153.5 -41t-82.5 -133l-223 94q33 133 147.5 208.5t299.5 75.5q219 0 342 -95t123 -281v-420q0 -41 18 -59.5t57 -18.5q43 0 70 8l-20 -170q-57 -29 -134 -28q-197 0 -235 153q-45 -76 -139.5 -114.5 t-223.5 -38.5q-150 0 -233.5 67.5t-83.5 194.5zM270 1520h270l144 -349h-209zM373 270q0 -49 30.5 -74.5t85.5 -25.5q91 0 165.5 44t74.5 120v106l-219 -49q-70 -16 -103.5 -44t-33.5 -77z" />
<glyph unicode="&#xe1;" horiz-adv-x="1175" d="M84 242q0 250 399 323l246 47v50q0 82 -46 130t-128 48q-94 0 -153.5 -41t-82.5 -133l-223 94q33 133 147.5 208.5t299.5 75.5q219 0 342 -95t123 -281v-420q0 -41 18 -59.5t57 -18.5q43 0 70 8l-20 -170q-57 -29 -134 -28q-197 0 -235 153q-45 -76 -139.5 -114.5 t-223.5 -38.5q-150 0 -233.5 67.5t-83.5 194.5zM373 270q0 -49 30.5 -74.5t85.5 -25.5q91 0 165.5 44t74.5 120v106l-219 -49q-70 -16 -103.5 -44t-33.5 -77zM428 1171l144 349h270l-205 -349h-209z" />
<glyph unicode="&#xe2;" horiz-adv-x="1175" d="M84 242q0 250 399 323l246 47v50q0 82 -46 130t-128 48q-94 0 -153.5 -41t-82.5 -133l-223 94q33 133 147.5 208.5t299.5 75.5q219 0 342 -95t123 -281v-420q0 -41 18 -59.5t57 -18.5q43 0 70 8l-20 -170q-57 -29 -134 -28q-197 0 -235 153q-45 -76 -139.5 -114.5 t-223.5 -38.5q-150 0 -233.5 67.5t-83.5 194.5zM198 1157l226 350h282l226 -350h-215l-152 197l-152 -197h-215zM373 270q0 -49 30.5 -74.5t85.5 -25.5q91 0 165.5 44t74.5 120v106l-219 -49q-70 -16 -103.5 -44t-33.5 -77z" />
<glyph unicode="&#xe3;" horiz-adv-x="1175" d="M84 242q0 250 399 323l246 47v50q0 82 -46 130t-128 48q-94 0 -153.5 -41t-82.5 -133l-223 94q33 133 147.5 208.5t299.5 75.5q219 0 342 -95t123 -281v-420q0 -41 18 -59.5t57 -18.5q43 0 70 8l-20 -170q-57 -29 -134 -28q-197 0 -235 153q-45 -76 -139.5 -114.5 t-223.5 -38.5q-150 0 -233.5 67.5t-83.5 194.5zM170 1163q16 307 258 307q59 0 98 -20t82 -57q31 -25 49.5 -36t40.5 -11q37 0 57.5 30.5t28.5 93.5h172q-8 -153 -72.5 -230t-183.5 -77q-59 0 -99 20.5t-83 57.5q-29 25 -48.5 36t-41.5 11q-37 0 -57.5 -30.5t-28.5 -94.5 h-172zM373 270q0 -49 30.5 -74.5t85.5 -25.5q91 0 165.5 44t74.5 120v106l-219 -49q-70 -16 -103.5 -44t-33.5 -77z" />
<glyph unicode="&#xe4;" horiz-adv-x="1175" d="M84 242q0 250 399 323l246 47v50q0 82 -46 130t-128 48q-94 0 -153.5 -41t-82.5 -133l-223 94q33 133 147.5 208.5t299.5 75.5q219 0 342 -95t123 -281v-420q0 -41 18 -59.5t57 -18.5q43 0 70 8l-20 -170q-57 -29 -134 -28q-197 0 -235 153q-45 -76 -139.5 -114.5 t-223.5 -38.5q-150 0 -233.5 67.5t-83.5 194.5zM196 1300q0 66 41 105t111 39q72 0 113 -39t41 -105t-41 -104.5t-113 -38.5q-70 0 -111 39t-41 104zM373 270q0 -49 30.5 -74.5t85.5 -25.5q91 0 165.5 44t74.5 120v106l-219 -49q-70 -16 -103.5 -44t-33.5 -77zM627 1300 q0 66 40.5 105t110.5 39q72 0 114 -39t42 -105t-42 -104.5t-114 -38.5q-70 0 -110.5 39t-40.5 104z" />
<glyph unicode="&#xe5;" horiz-adv-x="1175" d="M84 242q0 250 399 323l246 47v50q0 82 -46 130t-128 48q-94 0 -153.5 -41t-82.5 -133l-223 94q33 133 147.5 208.5t299.5 75.5q219 0 342 -95t123 -281v-420q0 -41 18 -59.5t57 -18.5q43 0 70 8l-20 -170q-57 -29 -134 -28q-197 0 -235 153q-45 -76 -139.5 -114.5 t-223.5 -38.5q-150 0 -233.5 67.5t-83.5 194.5zM293 1393q0 113 72.5 179t197.5 66t196.5 -66.5t71.5 -178.5q0 -113 -71.5 -179.5t-196.5 -66.5t-197.5 66.5t-72.5 179.5zM373 270q0 -49 30.5 -74.5t85.5 -25.5q91 0 165.5 44t74.5 120v106l-219 -49q-70 -16 -103.5 -44 t-33.5 -77zM442 1393q0 -51 34 -84t87 -33t87 32.5t34 84.5q0 53 -34 85.5t-87 32.5t-87 -32.5t-34 -85.5z" />
<glyph unicode="&#xe6;" horiz-adv-x="1806" d="M84 242q0 125 93 201.5t288 113.5l274 53v52q0 84 -50 131t-142 47q-170 0 -223 -168l-224 78q33 139 151 216.5t308 77.5q119 0 206 -41.5t138 -123.5q59 80 145.5 122.5t192.5 42.5q227 0 349 -135t122 -352q0 -70 -8 -131h-686q16 -119 79.5 -178.5t159.5 -59.5 q88 0 136.5 32t70.5 95l228 -84q-100 -252 -441 -251q-264 0 -379 196q-102 -197 -454 -196q-160 0 -247 70.5t-87 191.5zM373 270q0 -51 30.5 -75.5t98.5 -24.5q96 0 166.5 55.5t70.5 151.5v74l-188 -43q-96 -25 -137 -53.5t-41 -84.5zM1018 598h440q-10 119 -59 179.5 t-150 60.5q-98 0 -157.5 -60.5t-73.5 -179.5z" />
<glyph unicode="&#xe7;" horiz-adv-x="1165" d="M94 512q0 252 138.5 392t383.5 140q203 0 315.5 -81.5t153.5 -219.5l-262 -94q-37 186 -198 187q-121 0 -185.5 -83t-64.5 -243t65.5 -241t182.5 -81q180 0 213 183l254 -82q-27 -115 -112 -194t-218 -103q55 -39 83.5 -91.5t28.5 -107.5q0 -109 -74.5 -171t-197.5 -62 q-160 0 -244 78l74 145q27 -29 64.5 -45.5t80.5 -16.5q49 0 81 30t32 79q0 51 -32.5 86t-116.5 68q-213 25 -329 162t-116 366z" />
<glyph unicode="&#xe8;" horiz-adv-x="1191" d="M94 512q0 252 135.5 392t380.5 140q238 0 366 -137t128 -391q0 -57 -8 -110h-725q43 -217 256 -218q88 0 145 33t80 94l229 -84q-49 -123 -164.5 -187t-289.5 -64q-254 0 -393.5 140t-139.5 392zM309 1520h270l144 -349h-209zM369 602h477q-16 115 -77.5 175.5 t-160.5 60.5q-102 0 -162.5 -59.5t-76.5 -176.5z" />
<glyph unicode="&#xe9;" horiz-adv-x="1191" d="M94 512q0 252 135.5 392t380.5 140q238 0 366 -137t128 -391q0 -57 -8 -110h-725q43 -217 256 -218q88 0 145 33t80 94l229 -84q-49 -123 -164.5 -187t-289.5 -64q-254 0 -393.5 140t-139.5 392zM369 602h477q-16 115 -77.5 175.5t-160.5 60.5q-102 0 -162.5 -59.5 t-76.5 -176.5zM467 1171l144 349h270l-205 -349h-209z" />
<glyph unicode="&#xea;" horiz-adv-x="1191" d="M94 512q0 252 135.5 392t380.5 140q238 0 366 -137t128 -391q0 -57 -8 -110h-725q43 -217 256 -218q88 0 145 33t80 94l229 -84q-49 -123 -164.5 -187t-289.5 -64q-254 0 -393.5 140t-139.5 392zM237 1157l226 350h282l226 -350h-215l-152 197l-152 -197h-215zM369 602 h477q-16 115 -77.5 175.5t-160.5 60.5q-102 0 -162.5 -59.5t-76.5 -176.5z" />
<glyph unicode="&#xeb;" horiz-adv-x="1191" d="M94 512q0 252 135.5 392t380.5 140q238 0 366 -137t128 -391q0 -57 -8 -110h-725q43 -217 256 -218q88 0 145 33t80 94l229 -84q-49 -123 -164.5 -187t-289.5 -64q-254 0 -393.5 140t-139.5 392zM235 1300q0 66 41 105t111 39q72 0 113 -39t41 -105t-41 -104.5 t-113 -38.5q-70 0 -111 39t-41 104zM369 602h477q-16 115 -77.5 175.5t-160.5 60.5q-102 0 -162.5 -59.5t-76.5 -176.5zM666 1300q0 66 40.5 105t110.5 39q72 0 114 -39t42 -105t-42 -104.5t-114 -38.5q-70 0 -110.5 39t-40.5 104z" />
<glyph unicode="&#xec;" horiz-adv-x="577" d="M-6 1520h270l144 -349h-209zM147 0v1024h281v-1024h-281z" />
<glyph unicode="&#xed;" horiz-adv-x="577" d="M147 0v1024h281v-1024h-281zM164 1171l144 349h270l-205 -349h-209z" />
<glyph unicode="&#xee;" horiz-adv-x="577" d="M-78 1157l226 350h282l226 -350h-215l-152 197l-152 -197h-215zM147 0v1024h281v-1024h-281z" />
<glyph unicode="&#xef;" horiz-adv-x="577" d="M-43 1300q0 70 39 108t108 38q70 0 109 -38t39 -108t-39 -107.5t-109 -37.5q-69 0 -108 38t-39 107zM147 0v1024h281v-1024h-281zM326 1300q0 70 38.5 108t108.5 38t109 -38t39 -108t-39 -107.5t-109 -37.5t-108.5 38t-38.5 107z" />
<glyph unicode="&#xf0;" horiz-adv-x="1249" d="M100 494q0 158 62.5 273.5t174.5 177t255 61.5q219 0 311 -144q-43 199 -158 334l-352 -80l-20 109l297 51q-111 104 -289 209h287q113 -63 211 -162l237 59l29 -110l-199 -29q193 -258 193 -633q0 -311 -131 -470.5t-404 -159.5q-236 0 -370 136t-134 378zM385 494 q0 -150 61.5 -228t176.5 -78q118 0 183.5 84t65.5 222q0 156 -62 235.5t-181 79.5t-181.5 -80t-62.5 -235z" />
<glyph unicode="&#xf1;" horiz-adv-x="1267" d="M147 0v1024h252l9 -182q51 100 141 151t209 51q166 0 267 -96t101 -276v-672h-280v590q0 233 -182 233q-98 0 -167 -69.5t-69 -212.5v-541h-281zM250 1163q16 307 258 307q59 0 98 -20t82 -57q31 -25 49.5 -36t40.5 -11q37 0 57.5 30.5t28.5 93.5h172q-8 -153 -72.5 -230 t-183.5 -77q-59 0 -99 20.5t-83 57.5q-29 25 -48.5 36t-41.5 11q-37 0 -57.5 -30.5t-28.5 -94.5h-172z" />
<glyph unicode="&#xf2;" d="M94 512q0 250 138.5 391t385.5 141q248 0 386.5 -141t138.5 -391t-138.5 -391t-386.5 -141t-386 141t-138 391zM323 1520h270l144 -349h-209zM375 512q0 -162 62.5 -243t180.5 -81q119 0 181.5 81t62.5 243t-62.5 243t-181.5 81q-118 0 -180.5 -81t-62.5 -243z" />
<glyph unicode="&#xf3;" d="M94 512q0 250 138.5 391t385.5 141q248 0 386.5 -141t138.5 -391t-138.5 -391t-386.5 -141t-386 141t-138 391zM375 512q0 -162 62.5 -243t180.5 -81q119 0 181.5 81t62.5 243t-62.5 243t-181.5 81q-118 0 -180.5 -81t-62.5 -243zM481 1171l144 349h270l-205 -349h-209z " />
<glyph unicode="&#xf4;" d="M94 512q0 250 138.5 391t385.5 141q248 0 386.5 -141t138.5 -391t-138.5 -391t-386.5 -141t-386 141t-138 391zM251 1157l226 350h282l226 -350h-215l-152 197l-152 -197h-215zM375 512q0 -162 62.5 -243t180.5 -81q119 0 181.5 81t62.5 243t-62.5 243t-181.5 81 q-118 0 -180.5 -81t-62.5 -243z" />
<glyph unicode="&#xf5;" d="M94 512q0 250 138.5 391t385.5 141q248 0 386.5 -141t138.5 -391t-138.5 -391t-386.5 -141t-386 141t-138 391zM223 1163q16 307 258 307q59 0 98 -20t82 -57q31 -25 49.5 -36t40.5 -11q37 0 57.5 30.5t28.5 93.5h172q-8 -153 -72.5 -230t-183.5 -77q-59 0 -99 20.5 t-83 57.5q-29 25 -48.5 36t-41.5 11q-37 0 -57.5 -30.5t-28.5 -94.5h-172zM375 512q0 -162 62.5 -243t180.5 -81q119 0 181.5 81t62.5 243t-62.5 243t-181.5 81q-118 0 -180.5 -81t-62.5 -243z" />
<glyph unicode="&#xf6;" d="M94 512q0 250 138.5 391t385.5 141q248 0 386.5 -141t138.5 -391t-138.5 -391t-386.5 -141t-386 141t-138 391zM249 1300q0 66 41 105t111 39q72 0 113 -39t41 -105t-41 -104.5t-113 -38.5q-70 0 -111 39t-41 104zM375 512q0 -162 62.5 -243t180.5 -81q119 0 181.5 81 t62.5 243t-62.5 243t-181.5 81q-118 0 -180.5 -81t-62.5 -243zM680 1300q0 66 40.5 105t110.5 39q72 0 114 -39t42 -105t-42 -104.5t-114 -38.5q-70 0 -110.5 39t-40.5 104z" />
<glyph unicode="&#xf7;" d="M109 553v213h1019v-213h-1019zM457 236q0 72 44 113.5t120 41.5q75 0 119 -42t44 -113q0 -74 -44 -116t-119 -42q-76 0 -120 42t-44 116zM457 1085q0 74 44 116t120 42q75 0 119 -42t44 -116q0 -72 -44 -113.5t-119 -41.5q-76 0 -120 42t-44 113z" />
<glyph unicode="&#xf8;" horiz-adv-x="1239" d="M94 512q0 250 138.5 391t385.5 141q181 1 306 -77l80 102h137l-133 -170q135 -139 135 -387q0 -250 -138.5 -391t-386.5 -141q-168 0 -286 65l-82 -108h-137l131 174q-74 68 -112 170t-38 231zM375 512q0 -115 47 -193h2l57 82l289 383q-57 51 -152 52q-119 0 -181 -81 t-62 -243zM483 227q51 -39 135 -39q119 0 181.5 81t62.5 243q0 104 -39 170h-2l-51 -76z" />
<glyph unicode="&#xf9;" horiz-adv-x="1267" d="M141 346v678h281v-606q0 -119 45 -168t133 -49q106 0 173 68.5t67 205.5v549h280v-1024h-250l-10 176q-98 -197 -358 -196q-166 0 -263.5 89t-97.5 277zM332 1520h270l144 -349h-209z" />
<glyph unicode="&#xfa;" horiz-adv-x="1267" d="M141 346v678h281v-606q0 -119 45 -168t133 -49q106 0 173 68.5t67 205.5v549h280v-1024h-250l-10 176q-98 -197 -358 -196q-166 0 -263.5 89t-97.5 277zM491 1171l144 349h270l-205 -349h-209z" />
<glyph unicode="&#xfb;" horiz-adv-x="1267" d="M141 346v678h281v-606q0 -119 45 -168t133 -49q106 0 173 68.5t67 205.5v549h280v-1024h-250l-10 176q-98 -197 -358 -196q-166 0 -263.5 89t-97.5 277zM260 1157l226 350h282l226 -350h-215l-152 197l-152 -197h-215z" />
<glyph unicode="&#xfc;" horiz-adv-x="1267" d="M141 346v678h281v-606q0 -119 45 -168t133 -49q106 0 173 68.5t67 205.5v549h280v-1024h-250l-10 176q-98 -197 -358 -196q-166 0 -263.5 89t-97.5 277zM260 1300q0 66 41 105t111 39q72 0 113 -39t41 -105t-41 -104.5t-113 -38.5q-70 0 -111 39t-41 104zM691 1300 q0 66 40.5 105t110.5 39q72 0 114 -39t42 -105t-42 -104.5t-114 -38.5q-70 0 -110.5 39t-40.5 104z" />
<glyph unicode="&#xfd;" horiz-adv-x="1140" d="M14 -360l70 198q33 -37 73 -50t99 -13q63 0 102 26.5t66 96.5l37 88l-113 266l-313 772h311l193 -614l55 -205l61 217l189 602h284l-413 -1087q-76 -209 -175.5 -293t-265.5 -84t-260 80zM461 1171l144 349h270l-205 -349h-209z" />
<glyph unicode="&#xfe;" horiz-adv-x="1288" d="M147 -430v1903h281v-613q49 86 132 135t196 49q194 0 313 -136t119 -390q0 -182 -59.5 -303t-159 -178t-219.5 -57q-109 0 -192 46t-130 126v-582h-281zM428 502q0 -145 63.5 -226t174.5 -81q116 0 178.5 80.5t62.5 236.5t-62.5 236.5t-178.5 80.5q-109 0 -173.5 -79.5 t-64.5 -227.5v-20z" />
<glyph unicode="&#xff;" horiz-adv-x="1140" d="M14 -360l70 198q33 -37 73 -50t99 -13q63 0 102 26.5t66 96.5l37 88l-113 266l-313 772h311l193 -614l55 -205l61 217l189 602h284l-413 -1087q-76 -209 -175.5 -293t-265.5 -84t-260 80zM229 1300q0 66 41 105t111 39q72 0 113 -39t41 -105t-41 -104.5t-113 -38.5 q-70 0 -111 39t-41 104zM660 1300q0 66 40.5 105t110.5 39q72 0 114 -39t42 -105t-42 -104.5t-114 -38.5q-70 0 -110.5 39t-40.5 104z" />
<glyph unicode="&#x152;" horiz-adv-x="2170" d="M109 676q0 215 76.5 371.5t220 240.5t337.5 84q133 0 240 -49t182 -141v170h899v-228h-694v-336h539v-217h-539v-344h723v-227h-928v174q-78 -92 -185.5 -143t-240.5 -51q-193 0 -335 83.5t-218.5 240.5t-76.5 372zM397 676q0 -225 91.5 -345t265.5 -120q159 0 250.5 121 t91.5 344t-91.5 344t-250.5 121q-174 0 -265.5 -120t-91.5 -345z" />
<glyph unicode="&#x153;" horiz-adv-x="1980" d="M94 512q0 250 138.5 391t379.5 141q137 0 238.5 -50t163.5 -144q59 94 155.5 144t227.5 50q156 0 267.5 -62t167.5 -173t56 -252q0 -72 -10 -117h-725q31 -252 260 -252q88 0 146.5 33t78.5 94l230 -84q-49 -123 -165 -187t-290 -64q-135 0 -236.5 50t-160.5 146 q-61 -96 -163.5 -146t-240.5 -50q-242 0 -380 141t-138 391zM381 512q0 -324 242 -324q118 0 180.5 81t62.5 243t-62.5 243t-180.5 81q-242 0 -242 -324zM1155 596h467q-14 117 -70.5 179.5t-154.5 62.5q-103 0 -165.5 -61.5t-76.5 -180.5z" />
<glyph unicode="&#x178;" horiz-adv-x="1282" d="M20 1352h302l217 -404l102 -213l104 213l218 404h299l-480 -846v-506h-282v506zM272 1628q0 66 41 105t111 39q72 0 113 -39t41 -105t-41 -104.5t-113 -38.5q-70 0 -111 39t-41 104zM703 1628q0 66 40.5 105t110.5 39q72 0 114 -39t42 -105t-42 -104.5t-114 -38.5 q-70 0 -110.5 39t-40.5 104z" />
<glyph unicode="&#x2c6;" horiz-adv-x="1024" d="M145 1157l226 350h282l226 -350h-215l-152 197l-152 -197h-215z" />
<glyph unicode="&#x2dc;" horiz-adv-x="1024" d="M119 1163q16 307 258 307q59 0 98 -20t82 -57q31 -25 49.5 -36t40.5 -11q37 0 57.5 30.5t28.5 93.5h172q-8 -153 -72.5 -230t-183.5 -77q-59 0 -99 20.5t-83 57.5q-29 25 -48.5 36t-41.5 11q-37 0 -57.5 -30.5t-28.5 -94.5h-172z" />
<glyph unicode="&#x2000;" horiz-adv-x="914" />
<glyph unicode="&#x2001;" horiz-adv-x="1829" />
<glyph unicode="&#x2002;" horiz-adv-x="914" />
<glyph unicode="&#x2003;" horiz-adv-x="1829" />
<glyph unicode="&#x2004;" horiz-adv-x="609" />
<glyph unicode="&#x2005;" horiz-adv-x="457" />
<glyph unicode="&#x2006;" horiz-adv-x="304" />
<glyph unicode="&#x2007;" horiz-adv-x="304" />
<glyph unicode="&#x2008;" horiz-adv-x="228" />
<glyph unicode="&#x2009;" horiz-adv-x="365" />
<glyph unicode="&#x200a;" horiz-adv-x="101" />
<glyph unicode="&#x2010;" horiz-adv-x="1067" d="M172 422v242h723v-242h-723z" />
<glyph unicode="&#x2011;" horiz-adv-x="1067" d="M172 422v242h723v-242h-723z" />
<glyph unicode="&#x2012;" horiz-adv-x="1067" d="M172 422v242h723v-242h-723z" />
<glyph unicode="&#x2013;" horiz-adv-x="1394" d="M162 428v231h1071v-231h-1071z" />
<glyph unicode="&#x2014;" horiz-adv-x="2066" d="M162 428v231h1741v-231h-1741z" />
<glyph unicode="&#x2018;" horiz-adv-x="573" d="M92 1034q0 125 66.5 228.5t195.5 160.5l129 -98q-90 -33 -151.5 -89t-81.5 -126l8 -6q20 20 59 20q59 0 104.5 -41t45.5 -116q0 -78 -49 -125t-129 -47q-94 0 -145.5 66.5t-51.5 172.5z" />
<glyph unicode="&#x2019;" horiz-adv-x="573" d="M98 891q90 33 152.5 89t83.5 126l-8 6q-25 -20 -62 -20q-59 0 -104 41t-45 116q0 78 50 125t128 47q94 0 145 -66.5t51 -172.5q0 -125 -66.5 -228.5t-195.5 -160.5z" />
<glyph unicode="&#x201a;" horiz-adv-x="575" d="M88 -217q90 35 151.5 90t82.5 125l-9 6q-20 -20 -59 -20q-59 0 -104.5 41t-45.5 116q0 80 49.5 126t129.5 46q94 0 145 -66.5t51 -172.5q0 -125 -66.5 -228.5t-195.5 -160.5z" />
<glyph unicode="&#x201c;" horiz-adv-x="1032" d="M92 1034q0 125 66.5 228.5t195.5 160.5l129 -98q-90 -33 -151.5 -89t-81.5 -126l8 -6q20 20 59 20q59 0 104.5 -41t45.5 -116q0 -78 -49 -125t-129 -47q-94 0 -145.5 66.5t-51.5 172.5zM551 1034q0 125 66.5 228.5t195.5 160.5l129 -98q-90 -33 -151.5 -89t-81.5 -126 l8 -6q20 20 59 20q59 0 104.5 -41t45.5 -116q0 -78 -49 -125t-129 -47q-94 0 -145.5 66.5t-51.5 172.5z" />
<glyph unicode="&#x201d;" horiz-adv-x="1026" d="M98 891q90 33 152.5 89t83.5 126l-8 6q-25 -20 -62 -20q-59 0 -104 41t-45 116q0 78 50 125t128 47q94 0 145 -66.5t51 -172.5q0 -125 -66.5 -228.5t-195.5 -160.5zM551 891q90 33 152.5 89t83.5 126l-8 6q-25 -20 -62 -20q-59 0 -104 41t-45 116q0 78 50 125t128 47 q94 0 145 -66.5t51 -172.5q0 -125 -66.5 -228.5t-195.5 -160.5z" />
<glyph unicode="&#x201e;" horiz-adv-x="1028" d="M88 -217q90 35 151.5 90t82.5 125l-9 6q-20 -20 -59 -20q-59 0 -104.5 41t-45.5 116q0 80 49.5 126t129.5 46q94 0 145 -66.5t51 -172.5q0 -125 -66.5 -228.5t-195.5 -160.5zM541 -217q90 35 151.5 90t82.5 125l-9 6q-20 -20 -59 -20q-59 0 -104.5 41t-45.5 116 q0 80 49.5 126t129.5 46q94 0 145 -66.5t51 -172.5q0 -125 -66.5 -228.5t-195.5 -160.5z" />
<glyph unicode="&#x2022;" horiz-adv-x="880" d="M147 684q0 129 80 207t213 78t213 -78t80 -207q0 -127 -80 -205t-213 -78t-213 78t-80 205z" />
<glyph unicode="&#x2026;" horiz-adv-x="1835" d="M121 147q0 78 48 122t130 44t130 -45t48 -121t-48 -120.5t-130 -44.5t-130 44t-48 121zM742 147q0 78 48 122t130 44t130 -45t48 -121t-48 -120.5t-130 -44.5t-130 44t-48 121zM1360 147q0 78 48 122t130 44t130 -45t48 -121t-48 -120.5t-130 -44.5t-130 44t-48 121z" />
<glyph unicode="&#x202f;" horiz-adv-x="365" />
<glyph unicode="&#x2039;" horiz-adv-x="681" d="M84 543l256 401h258l-254 -401l254 -402h-258z" />
<glyph unicode="&#x203a;" horiz-adv-x="681" d="M84 141l254 402l-254 401h258l256 -401l-256 -402h-258z" />
<glyph unicode="&#x205f;" horiz-adv-x="457" />
<glyph unicode="&#x20ac;" horiz-adv-x="1435" d="M78 432v150h162q-4 31 -4 94v49h-158v149h176q45 236 198.5 367t391.5 131q190 0 328.5 -84t187.5 -235l-217 -101q-25 104 -100.5 157.5t-180.5 53.5q-131 0 -219 -74.5t-123 -214.5h486l-50 -149h-456q-2 -16 -2 -49t4 -94h420l-45 -150h-347q39 -119 121 -181.5 t203 -62.5q106 0 186 60.5t109 175.5l225 -72q-49 -178 -191.5 -275t-334.5 -97q-229 0 -381 117.5t-205 334.5h-184z" />
<glyph unicode="&#x2122;" horiz-adv-x="1703" d="M68 1214v138h598v-138h-207v-538h-183v538h-208zM768 676v676h252l115 -330l39 -131h6l37 131l116 330h248v-676h-180v287l12 198h-4l-31 -110l-131 -375h-141l-133 375l-33 110h-2l10 -198v-287h-180z" />
<glyph unicode="&#x25fc;" horiz-adv-x="1024" d="M0 0v1024h1024v-1024h-1024z" />
</font>
</defs>
</svg>
